<?xml version="1.0" standalone="no"?>
<!DOCTYPE svg PUBLIC "-//W3C//DTD SVG 1.1//EN" "http://www.w3.org/Graphics/SVG/1.1/DTD/svg11.dtd" >
<svg xmlns="http://www.w3.org/2000/svg" xmlns:xlink="http://www.w3.org/1999/xlink" version="1.1">
<metadata>
Created by FontForge 20161003 at Thu Sep 21 13:33:06 2017
 By www-data
Copyright (c) 2000 Adobe Systems Incorporated. All Rights Reserved. U.S. Patent Des. pending.
</metadata>
<defs>
<font id="MyriadProCond" horiz-adv-x="300" >
  <font-face 
    font-family="MyriadProCond"
    font-weight="400"
    font-stretch="condensed"
    units-per-em="1000"
    panose-1="2 11 5 6 3 4 3 2 2 4"
    ascent="750"
    descent="-250"
    x-height="484"
    cap-height="674"
    bbox="-42 -250 970 871"
    underline-thickness="50"
    underline-position="-150"
    unicode-range="U+0020-FB04"
  />
<missing-glyph horiz-adv-x="500" 
d="M0 0v700h500v-700h-500zM250 395l170 255h-340zM280 350l170 -255v510zM80 50h340l-170 255zM50 605v-510l170 255z" />
    <glyph glyph-name="f_f_j" unicode="ffj" horiz-adv-x="642" 
d="M567 677l-16 -60q-40 19 -80 19q-55 0 -76 -33t-21 -95v-24h217v-453q0 -75 -11.5 -116t-37.5 -70q-20 -20 -50.5 -32t-55.5 -13l-10 61q47 11 65 37q23 37 23 155v373h-140v-426h-77v426h-150v-426h-77v426h-61v58h61v18q0 98 52 147q39 39 101 39q37 0 67 -16l-22 -58
q-22 11 -44 11q-36 0 -55 -27q-22 -28 -22 -94v-20h150v32q0 76 42 130t134 54q58 0 94 -23z" />
    <glyph glyph-name="f_j" unicode="fj" horiz-adv-x="415" 
d="M147 0h-77v426h-61v58h61v32q0 76 42 130t134 54q58 0 94 -23l-16 -60q-40 19 -80 19q-55 0 -76 -33t-21 -95v-24h217v-453q0 -75 -11.5 -116t-37.5 -70q-20 -20 -50.5 -32t-55.5 -13l-10 61q47 11 65 37q23 37 23 155v373h-140v-426z" />
    <glyph glyph-name="ff" unicode="ff" horiz-adv-x="451" 
d="M370 0h-77v426h-146v-426h-77v426h-61v58h61v24q0 95 44 142q36 38 100 38q28 0 50 -9l-14 -61q-16 7 -37 7q-36 0 -51 -29t-15 -87v-25h146v30q0 97 43 145q37 41 97 41q36 0 60 -12l-12 -60q-20 8 -43 8q-68 0 -68 -121v-31h88v-58h-88v-426z" />
    <glyph glyph-name="fi" unicode="fi" horiz-adv-x="418" 
d="M147 0h-77v426h-61v58h61v32q0 76 42 130t134 54q58 0 94 -23l-16 -60q-40 19 -80 19q-55 0 -76 -33t-21 -95v-24h217v-484h-77v426h-140v-426z" />
    <glyph glyph-name="fl" unicode="fl" horiz-adv-x="418" 
d="M147 0h-77v426h-61v58h61v26q0 96 55 147q45 43 123 43q67 0 117 -25v-675h-77v627q-23 10 -53 10q-88 0 -88 -122v-31h83v-58h-83v-426z" />
    <glyph glyph-name="ffi" unicode="ffi" horiz-adv-x="645" 
d="M567 677l-16 -60q-40 19 -80 19q-55 0 -76 -33t-21 -95v-24h217v-484h-77v426h-140v-426h-77v426h-150v-426h-77v426h-61v58h61v18q0 98 52 147q39 39 101 39q37 0 67 -16l-22 -58q-22 11 -44 11q-36 0 -55 -27q-22 -28 -22 -94v-20h150v32q0 76 42 130t134 54
q58 0 94 -23z" />
    <glyph glyph-name="ffl" unicode="ffl" horiz-adv-x="645" 
d="M290 672l-22 -58q-22 11 -44 11q-36 0 -55 -27q-22 -28 -22 -94v-20h150v26q0 96 55 147q45 43 123 43q67 0 117 -25v-675h-77v627q-23 10 -53 10q-88 0 -88 -122v-31h83v-58h-83v-426h-77v426h-150v-426h-77v426h-61v58h61v18q0 98 52 147q39 39 101 39q37 0 67 -16z
" />
    <glyph glyph-name=".notdef" horiz-adv-x="500" 
d="M0 0v700h500v-700h-500zM250 395l170 255h-340zM280 350l170 -255v510zM80 50h340l-170 255zM50 605v-510l170 255z" />
    <glyph glyph-name=".null" horiz-adv-x="0" 
 />
    <glyph glyph-name="nonmarkingreturn" horiz-adv-x="333" 
 />
    <glyph glyph-name="space" unicode=" " horiz-adv-x="157" 
 />
    <glyph glyph-name="space" unicode="&#xa0;" horiz-adv-x="157" 
 />
    <glyph glyph-name="exclam" unicode="!" horiz-adv-x="204" 
d="M134 187h-65l-10 487h85zM102 -8h-1q-21 0 -34.5 15t-13.5 39t14 39.5t35 15.5q22 0 35.5 -15t13.5 -40q0 -24 -13 -39t-36 -15z" />
    <glyph glyph-name="quotedbl" unicode="&#x22;" horiz-adv-x="309" 
d="M49 683h72l-14 -233h-44zM188 683h72l-14 -233h-44z" />
    <glyph glyph-name="numbersign" unicode="#" horiz-adv-x="385" 
d="M145 252h78l19 152h-78zM113 0h-51l25 200h-64v52h71l20 152h-69v51h76l25 195h50l-25 -195h78l25 195h51l-25 -195h63v-51h-70l-19 -152h69v-51h-76l-25 -201h-52l25 201h-76z" />
    <glyph glyph-name="dollar" unicode="$" horiz-adv-x="385" 
d="M217 -84h-55v100q-62 1 -111 34l18 60q51 -32 102 -32q43 0 67.5 28.5t24.5 72.5q0 78 -85 130q-58 34 -91 71t-33 94q0 58 32.5 99.5t81.5 54.5v97h55v-91q58 0 95 -27l-19 -59q-41 25 -87 25q-39 0 -62 -26.5t-23 -60.5q0 -41 20 -64.5t75 -55.5q114 -67 114 -178
q0 -68 -33.5 -111t-85.5 -55v-106z" />
    <glyph glyph-name="percent" unicode="%" horiz-adv-x="645" 
d="M153 658h1q55 0 88 -53.5t33 -142.5q0 -97 -35.5 -147.5t-86.5 -50.5q-55 0 -89 53t-34 143q0 91 35 144.5t88 53.5zM152 610h-1q-33 0 -47.5 -44.5t-14.5 -104.5q0 -149 64 -149q63 0 63 149t-64 149zM173 -14h-49l346 677h49zM493 387h1q55 0 88 -54t33 -143
q0 -96 -35.5 -146.5t-86.5 -50.5q-55 0 -89 53t-34 143q0 91 35 144.5t88 53.5zM492 339h-1q-33 0 -47.5 -44.5t-14.5 -104.5q0 -38 5.5 -69.5t20.5 -55.5t38 -24q63 0 63 148q0 150 -64 150z" />
    <glyph glyph-name="ampersand" unicode="&#x26;" horiz-adv-x="491" 
d="M474 0h-86q-6 8 -19.5 27t-25.5 36q-57 -71 -146 -71q-79 0 -123.5 55t-44.5 131q0 116 103 194v3q-49 76 -49 151q0 64 37.5 110t100.5 46q50 0 84.5 -36t34.5 -102q0 -52 -26.5 -94.5t-89.5 -86.5v-4q64 -104 129 -191q35 74 40 194h69q-13 -153 -74 -245
q6 -8 16 -22.5t31 -42.5zM209 53h1q61 0 99 58q-65 89 -146 213q-60 -58 -60 -138q0 -55 28 -94t78 -39zM215 625h-1q-28 0 -44 -27t-16 -68q0 -63 38 -123q80 60 80 133q0 35 -13.5 60t-43.5 25z" />
    <glyph glyph-name="quotesingle" unicode="'" horiz-adv-x="170" 
d="M49 683h72l-14 -233h-44z" />
    <glyph glyph-name="parenleft" unicode="(" horiz-adv-x="253" 
d="M168 692h60q-104 -164 -104 -407q0 -239 104 -405h-60q-109 159 -109 406q3 253 109 406z" />
    <glyph glyph-name="parenright" unicode=")" horiz-adv-x="253" 
d="M85 -120h-60q104 164 104 407q0 241 -104 405h60q109 -155 109 -405q-3 -249 -109 -407z" />
    <glyph glyph-name="asterisk" unicode="*" horiz-adv-x="373" 
d="M244 682l54 -30l-86 -120l1 -2l135 18v-62l-135 16l-1 -2l88 -116l-56 -32l-59 132l-2 -1l-60 -133l-51 32l85 120l-1 2l-132 -18v62l131 -17l1 3l-83 115l52 30l60 -128h2z" />
    <glyph glyph-name="plus" unicode="+" horiz-adv-x="596" 
d="M270 533h57v-238h230v-55h-230v-240h-57v240h-229v55h229v238z" />
    <glyph glyph-name="comma" unicode="," horiz-adv-x="194" 
d="M70 -119l-53 -7q40 112 58 233l87 10q-18 -63 -45 -133.5t-47 -102.5z" />
    <glyph glyph-name="hyphen" unicode="-" horiz-adv-x="279" 
d="M30 291h219v-59h-219v59z" />
    <glyph glyph-name="hyphen" unicode="&#xad;" horiz-adv-x="279" 
d="M30 291h219v-59h-219v59z" />
    <glyph glyph-name="period" unicode="." horiz-adv-x="194" 
d="M100 -8h-1q-21 0 -35.5 16t-14.5 42q0 25 15 41.5t36 16.5q23 0 37 -16t14 -42q0 -27 -13.5 -42.5t-37.5 -15.5z" />
    <glyph glyph-name="slash" unicode="/" horiz-adv-x="281" 
d="M66 -40h-58l215 722h58z" />
    <glyph glyph-name="zero" unicode="0" horiz-adv-x="385" 
d="M190 -8h-1q-76 0 -119 87t-43 245q0 162 45 248t126 86q78 0 119 -87.5t41 -244.5q0 -169 -46.5 -251.5t-121.5 -82.5zM193 58h1q87 0 87 267q0 121 -21.5 194t-65.5 73q-45 0 -67.5 -71.5t-22.5 -195.5q-1 -123 21 -195t68 -72z" />
    <glyph glyph-name="one" unicode="1" horiz-adv-x="385" 
d="M188 0v572h-2l-108 -62l-15 60l137 80h63v-650h-75z" />
    <glyph glyph-name="two" unicode="2" horiz-adv-x="385" 
d="M344 0h-312v50l54 74q43 60 61.5 87t50 80t44.5 97.5t13 87.5q0 55 -23.5 85.5t-68.5 30.5q-42 0 -94 -36l-19 58q53 44 127 44q77 0 116 -50t39 -128q0 -82 -42.5 -165t-118.5 -185l-43 -60v-2h216v-68z" />
    <glyph glyph-name="three" unicode="3" horiz-adv-x="385" 
d="M28 22l17 61q45 -27 94 -27q51 0 81.5 35t30.5 94q0 63 -36 99t-95 36h-18v58h15q41 0 79 30.5t38 85.5q0 48 -23.5 74t-62.5 26q-38 0 -81 -31l-16 58q45 37 116 37q67 0 105.5 -42t38.5 -107q0 -50 -25 -91t-72 -62v-2q49 -13 81.5 -56t32.5 -115q0 -82 -50 -136.5
t-136 -54.5q-71 0 -114 30z" />
    <glyph glyph-name="four" unicode="4" horiz-adv-x="385" 
d="M304 0h-70v180h-216v52l211 418h75v-407h70v-63h-70v-180zM91 243h143v183q0 42 6 128h-4q-24 -57 -55 -122l-90 -187v-2z" />
    <glyph glyph-name="five" unicode="5" horiz-adv-x="385" 
d="M333 650v-68h-175l-27 -173q8 2 24 2q29 0 64.5 -13t59.5 -36q55 -53 55 -148q0 -97 -55.5 -159.5t-141.5 -62.5q-68 0 -111 28l17 61q45 -25 91 -25q52 0 87.5 39t35.5 111q0 74 -40 110t-107 36q-33 0 -51 -3l41 301h233z" />
    <glyph glyph-name="six" unicode="6" horiz-adv-x="385" 
d="M319 658v-65q-19 0 -46 -6q-135 -34 -167 -235h3q42 62 110 62q62 0 101 -54t39 -146q0 -96 -42.5 -159t-117.5 -63q-83 0 -127 74t-44 191q0 178 84 293q28 40 70.5 66.5t87.5 35.5q16 3 49 6zM199 52h1q35 0 58.5 38.5t23.5 117.5q0 72 -23.5 109.5t-63.5 37.5
q-58 0 -85 -70q-5 -15 -5 -39q1 -96 26.5 -145t67.5 -49z" />
    <glyph glyph-name="seven" unicode="7" horiz-adv-x="385" 
d="M37 650h313v-46l-210 -604h-75l206 580v2h-234v68z" />
    <glyph glyph-name="eight" unicode="8" horiz-adv-x="385" 
d="M199 658h1q66 0 103 -46t37 -107q0 -93 -87 -154v-2q104 -71 104 -178q0 -77 -46.5 -128t-120.5 -51q-76 0 -119 50t-43 116q0 112 107 187l-1 2q-40 27 -62.5 67t-22.5 82q0 73 44 117.5t106 44.5zM192 49h1q39 0 63.5 30t24.5 88q0 89 -93 150q-39 -24 -61.5 -63
t-22.5 -83q0 -55 23.5 -88.5t64.5 -33.5zM196 601h-1q-32 0 -52 -28t-20 -72q0 -45 21.5 -73t58.5 -52q64 46 64 120q0 48 -18.5 76.5t-52.5 28.5z" />
    <glyph glyph-name="nine" unicode="9" horiz-adv-x="385" 
d="M67 -8v66q23 0 48 6q52 13 89 51q61 66 76 184h-2q-43 -54 -106 -54q-62 0 -102.5 53t-40.5 140q0 91 46 155.5t119 64.5q80 0 121.5 -73.5t41.5 -187.5q0 -186 -86 -301q-57 -79 -151 -98q-24 -6 -53 -6zM190 598h-1q-34 0 -59 -38.5t-24 -115.5q0 -69 24 -105t64 -36
q24 0 46 15.5t34 42.5q6 12 6 41q0 98 -24.5 147t-65.5 49z" />
    <glyph glyph-name="colon" unicode=":" horiz-adv-x="194" 
d="M100 359h-1q-21 0 -35 15.5t-14 40.5t14.5 41t35.5 16q22 0 36 -15.5t14 -41.5q0 -25 -13 -40.5t-37 -15.5zM100 -8h-1q-21 0 -35 15.5t-14 40.5t14.5 41t35.5 16q22 0 36 -15.5t14 -41.5q0 -25 -13 -40.5t-37 -15.5z" />
    <glyph glyph-name="semicolon" unicode=";" horiz-adv-x="194" 
d="M69 -119l-51 -7q40 115 57 233l86 10q-45 -157 -92 -236zM111 359h-1q-21 0 -35 15.5t-14 40.5t14.5 41t35.5 16q22 0 36 -15.5t14 -41.5q0 -25 -13 -40.5t-37 -15.5z" />
    <glyph glyph-name="less" unicode="&#x3c;" horiz-adv-x="596" 
d="M66 243v47l464 242v-66l-388 -199v-2l388 -199v-66z" />
    <glyph glyph-name="equal" unicode="=" horiz-adv-x="596" 
d="M556 336h-516v55h516v-55zM556 147h-516v55h516v-55z" />
    <glyph glyph-name="greater" unicode="&#x3e;" horiz-adv-x="596" 
d="M530 295v-58l-464 -237v66l400 199v2l-400 199v66z" />
    <glyph glyph-name="question" unicode="?" horiz-adv-x="309" 
d="M173 184h-68l-2 15q-15 95 42 190q2 3 10.5 18t10.5 18t8.5 15.5t8.5 16.5t6.5 15t6 16.5t4 15t3 17.5t0.5 17q0 41 -21 61t-55 20q-41 0 -67 -18l-16 59q38 26 99 26q70 0 104.5 -39.5t34.5 -98.5q0 -18 -3.5 -36t-8 -31.5t-14 -32t-15 -28t-18 -29.5t-16.5 -27
q-24 -42 -32 -78t-3 -85zM135 -8h-1q-21 0 -35 15.5t-14 39.5q0 25 14.5 41t35.5 16q23 0 36.5 -15.5t13.5 -41.5q0 -25 -13.5 -40t-36.5 -15z" />
    <glyph glyph-name="at" unicode="@" horiz-adv-x="590" 
d="M348 234l29 146q-11 4 -28 4q-55 0 -95.5 -65.5t-40.5 -142.5q0 -64 40 -64q30 0 58 38t37 84zM409 -29l12 -35q-63 -38 -148 -38q-104 0 -171 74t-67 215q0 168 91 287.5t225 119.5q99 0 154 -66.5t55 -173.5q0 -138 -42.5 -213.5t-111.5 -75.5q-63 0 -59 80h-2
q-43 -80 -109 -80q-36 0 -58.5 28.5t-22.5 80.5q0 59 23 115.5t73.5 97.5t116.5 41q41 0 71 -14l-40 -202q-20 -105 21 -105q38 0 66.5 64.5t28.5 163.5q0 105 -42.5 162.5t-128.5 57.5q-107 0 -185.5 -105t-78.5 -264q0 -120 54 -183.5t151 -63.5q60 0 124 32z" />
    <glyph glyph-name="A" unicode="A" horiz-adv-x="435" 
d="M291 202h-150l-44 -202h-75l154 674h85l150 -674h-76zM152 264h128l-35 171q-10 49 -27 154h-3q-15 -94 -28 -155z" />
    <glyph glyph-name="B" unicode="B" horiz-adv-x="416" 
d="M60 3v661q52 13 113 13q99 0 149 -46q44 -42 44 -116q0 -52 -27.5 -91.5t-76.5 -58.5v-3q59 -15 92 -60.5t33 -111.5q0 -80 -48 -133q-54 -61 -178 -61q-64 0 -101 7zM137 612v-225h35q48 0 82.5 34t34.5 85q0 111 -111 111q-26 0 -41 -5zM137 329v-269q13 -3 39 -3
q60 0 95.5 35t35.5 99q0 66 -39 101.5t-97 36.5h-34z" />
    <glyph glyph-name="C" unicode="C" horiz-adv-x="373" 
d="M342 76l13 -64q-34 -18 -97 -18q-103 0 -164.5 84t-61.5 250q0 95 22 166.5t58 110.5t76 57t83 18q58 0 83 -17l-17 -65q-32 14 -67 14q-63 0 -110 -67t-47 -209q0 -144 44.5 -209t114.5 -65q38 0 70 14z" />
    <glyph glyph-name="D" unicode="D" horiz-adv-x="445" 
d="M60 3v661q42 13 104 13q101 0 158 -51q91 -79 91 -273q0 -196 -81 -285q-65 -72 -186 -72q-55 0 -86 7zM137 610v-548q11 -2 29 -2q34 0 62 13.5t53 45t38.5 90.5t13.5 142q0 263 -160 263q-23 0 -36 -4z" />
    <glyph glyph-name="E" unicode="E" horiz-adv-x="354" 
d="M306 385v-65h-169v-253h192v-67h-269v674h257v-67h-180v-222h169z" />
    <glyph glyph-name="F" unicode="F" horiz-adv-x="345" 
d="M60 0v674h257v-67h-180v-236h168v-65h-168v-306h-77z" />
    <glyph glyph-name="G" unicode="G" horiz-adv-x="436" 
d="M391 352v-335q-54 -23 -119 -23q-99 0 -159 65q-82 88 -81 269t76 266.5t178 85.5q60 0 95 -19l-17 -66q-32 16 -77 16q-73 0 -124 -66t-51 -210t45.5 -209.5t114.5 -65.5q35 0 47 8v220h-87v64h159z" />
    <glyph glyph-name="H" unicode="H" horiz-adv-x="463" 
d="M60 674h77v-289h189v289h77v-674h-77v315h-189v-315h-77v674z" />
    <glyph glyph-name="I" unicode="I" horiz-adv-x="199" 
d="M60 674h77v-674h-77v674z" />
    <glyph glyph-name="J" unicode="J" horiz-adv-x="265" 
d="M134 189v485h77v-484q0 -108 -40.5 -153t-117.5 -45q-32 0 -50 7l7 65q13 -4 37 -4q44 0 65.5 27t21.5 102z" />
    <glyph glyph-name="K" unicode="K" horiz-adv-x="404" 
d="M60 0v674h77v-320h2q23 42 42 81l125 239h86l-165 -288l169 -386h-83l-138 325l-38 -65v-260h-77z" />
    <glyph glyph-name="L" unicode="L" horiz-adv-x="344" 
d="M60 0v674h77v-609h189v-65h-266z" />
    <glyph glyph-name="M" unicode="M" horiz-adv-x="599" 
d="M482 0l-14 290q-10 182 -7 264h-4q-26 -130 -54 -234l-82 -316h-50l-78 303q-35 133 -56 247h-3q1 -59 -8 -269l-13 -285h-69l40 674h84l78 -308q40 -154 54 -232h3q14 83 50 232l76 308h86l39 -674h-72z" />
    <glyph glyph-name="N" unicode="N" horiz-adv-x="465" 
d="M130 0h-69v674h72l124 -316q67 -175 86 -235h2q-9 159 -9 310v241h69v-674h-72l-128 324q-51 124 -81 229h-2q8 -120 8 -320v-233z" />
    <glyph glyph-name="O" unicode="O" horiz-adv-x="446" 
d="M220 -8h-1q-86 0 -136.5 89.5t-50.5 256.5q0 164 54 254t144 90q86 0 135 -89.5t49 -250.5q0 -179 -53.5 -264.5t-140.5 -85.5zM224 60h1q31 0 53 24.5t34 66.5t17 88t5 100q0 51 -5 96.5t-17 87.5t-34.5 66.5t-53.5 24.5q-41 0 -67.5 -44t-35.5 -102.5t-9 -129.5
q0 -53 5.5 -99.5t17.5 -88t35 -66t54 -24.5z" />
    <glyph glyph-name="P" unicode="P" horiz-adv-x="399" 
d="M60 0v664q50 13 112 13q100 0 150 -49q49 -49 49 -140q0 -84 -41 -138q-26 -36 -69 -55.5t-90 -19.5q-23 0 -34 1v-276h-77zM137 609v-269q18 -2 31 -2q58 0 92 37.5t34 107.5q0 58 -27 94.5t-87 36.5q-26 0 -43 -5z" />
    <glyph glyph-name="Q" unicode="Q" horiz-adv-x="446" 
d="M430 -29l-29 -62q-91 38 -155 73q-18 10 -25 10q-87 0 -138 87.5t-51 258.5q0 164 54 254t145 90q86 0 134.5 -90t48.5 -250q0 -265 -115 -319v-3q33 -15 131 -49zM225 60h1q30 0 52.5 24t34 66t16.5 88.5t5 100.5q0 52 -5 97.5t-17 87t-34 66t-53 24.5t-54 -24.5
t-35.5 -66t-18 -87.5t-5.5 -98q0 -53 5.5 -99.5t17.5 -88t35 -66t55 -24.5z" />
    <glyph glyph-name="R" unicode="R" horiz-adv-x="409" 
d="M60 0v664q48 13 111 13q103 0 152 -48q47 -48 47 -132q0 -123 -108 -174v-2q37 -11 58 -47.5t32 -103.5q24 -139 39 -170h-78q-14 28 -36 166q-11 70 -36 98.5t-74 28.5h-30v-293h-77zM137 611v-258h32q55 0 89 37t34 98q0 126 -115 127q-27 0 -40 -4z" />
    <glyph glyph-name="S" unicode="S" horiz-adv-x="361" 
d="M28 24l17 65q44 -27 97 -27q52 0 82 31t30 83q0 43 -22 74.5t-67 65.5q-127 89 -127 187q0 77 49.5 127t128.5 50q59 0 95 -25l-19 -66q-33 23 -80 23q-46 0 -71.5 -29t-25.5 -67q0 -46 21.5 -73t77.5 -66q117 -82 117 -194q0 -85 -53.5 -137t-135.5 -52q-33 0 -66 9
t-48 21z" />
    <glyph glyph-name="T" unicode="T" horiz-adv-x="354" 
d="M139 0v605h-123v69h323v-69h-123v-605h-77z" />
    <glyph glyph-name="U" unicode="U" horiz-adv-x="457" 
d="M59 674h77v-452q0 -162 91 -162q94 0 94 162v452h77v-440q0 -125 -46 -183.5t-126 -58.5q-167 0 -167 233v449z" />
    <glyph glyph-name="V" unicode="V" horiz-adv-x="421" 
d="M249 0h-79l-154 674h83l65 -316q35 -167 48 -259h3q10 85 45 261l64 314h82z" />
    <glyph glyph-name="W" unicode="W" horiz-adv-x="654" 
d="M222 0h-73l-129 674h79l57 -325q20 -112 34 -243h3q8 79 41 244l62 324h65l63 -317q31 -163 39 -251h3q10 90 35 247l56 321h76l-131 -674h-76l-64 328q-21 107 -35 221h-2q-13 -114 -37 -224z" />
    <glyph glyph-name="X" unicode="X" horiz-adv-x="392" 
d="M378 0h-80l-61 162q-25 67 -42 118h-3l-40 -120l-58 -160h-79l138 344l-134 330h80l61 -156q21 -55 39 -107h2q16 47 37 110l55 153h78l-132 -328z" />
    <glyph glyph-name="Y" unicode="Y" horiz-adv-x="394" 
d="M235 0h-77v285l-149 389h82l60 -169q40 -118 50 -152h2q12 48 49 155l57 166h80l-154 -386v-288z" />
    <glyph glyph-name="Z" unicode="Z" horiz-adv-x="358" 
d="M20 0v46l231 560v2h-212v66h299v-52l-228 -553v-3h227v-66h-317z" />
    <glyph glyph-name="bracketleft" unicode="[" horiz-adv-x="253" 
d="M222 -112h-148v798h148v-53h-86v-692h86v-53z" />
    <glyph glyph-name="backslash" unicode="\" horiz-adv-x="263" 
d="M255 -40h-58l-196 722h58z" />
    <glyph glyph-name="bracketright" unicode="]" horiz-adv-x="253" 
d="M31 686h149v-798h-149v53h86v692h-86v53z" />
    <glyph glyph-name="asciicircum" unicode="^" horiz-adv-x="596" 
d="M532 189h-65l-168 388h-3l-168 -388h-64l206 461h56z" />
    <glyph glyph-name="underscore" unicode="_" horiz-adv-x="500" 
d="M0 -75h500v-50h-500v50z" />
    <glyph glyph-name="grave" unicode="`" 
d="M39 682h79l77 -135h-51z" />
    <glyph glyph-name="a" unicode="a" horiz-adv-x="364" 
d="M309 320v-210q0 -79 5 -110h-69l-5 51h-3q-33 -59 -96 -59q-50 0 -82.5 38t-32.5 100q0 86 58.5 130.5t147.5 45.5v15q0 53 -17 81.5t-60 28.5q-44 0 -80 -25l-17 54q45 32 113 32q138 0 138 -172zM234 153v98q-133 0 -133 -113q0 -44 17.5 -65t41.5 -21q26 0 45 19
t26 54q3 13 3 28z" />
    <glyph glyph-name="b" unicode="b" horiz-adv-x="399" 
d="M53 115v577h77v-265h2q34 65 102 65q59 0 95.5 -64.5t36.5 -180.5q0 -124 -43 -189.5t-103 -65.5q-65 0 -96 71h-4l-5 -63h-66q4 112 4 115zM130 306v-136q0 -16 3 -30q21 -84 72 -84q84 0 84 187q0 80 -20.5 131.5t-64.5 51.5q-26 0 -46 -26t-26 -60q-2 -22 -2 -34z" />
    <glyph glyph-name="c" unicode="c" horiz-adv-x="302" 
d="M279 71l11 -59q-31 -18 -80 -18q-81 0 -129 63.5t-48 181.5q0 108 51.5 180t139.5 72q43 0 68 -16l-15 -62q-26 13 -55 13q-55 0 -83.5 -54.5t-28.5 -132.5q0 -85 30.5 -133t83.5 -48q30 0 55 13z" />
    <glyph glyph-name="d" unicode="d" horiz-adv-x="399" 
d="M269 692h77v-576q0 -4 4 -116h-66l-5 60h-4q-13 -28 -39 -48t-62 -20q-63 0 -102 65.5t-39 182.5q0 122 42.5 187t103.5 65q62 0 88 -57h2v257zM269 171v129q0 21 -1 32q-3 38 -24 66t-48 28q-45 0 -65.5 -52.5t-20.5 -133.5t21 -132.5t61 -51.5q54 0 74 83q3 9 3 32z
" />
    <glyph glyph-name="e" unicode="e" horiz-adv-x="363" 
d="M332 235h-224q1 -180 114 -180q46 0 80 18l13 -56q-41 -23 -107 -23q-85 0 -130 64.5t-45 178.5q0 117 45 186t118 69q69 0 103.5 -61.5t34.5 -151.5q0 -20 -2 -44zM109 292h151q1 68 -20.5 104t-51.5 36q-35 0 -55.5 -42.5t-23.5 -97.5z" />
    <glyph glyph-name="f" unicode="f" horiz-adv-x="228" 
d="M147 0h-77v426h-61v58h61v30q0 97 43 145q37 41 97 41q36 0 60 -12l-12 -60q-20 8 -43 8q-68 0 -68 -121v-31h88v-58h-88v-426z" />
    <glyph glyph-name="g" unicode="g" horiz-adv-x="399" 
d="M346 333v-271q0 -91 -11.5 -136.5t-36.5 -74.5q-48 -51 -129 -51q-63 0 -106 24l18 60q40 -21 89 -21q99 0 99 148v49h-2q-25 -59 -92 -59q-64 0 -103 66t-39 173q0 124 45.5 188t106.5 64q57 0 90 -62h2l4 54h69q-4 -132 -4 -151zM269 177v140q0 21 -4 36q-18 73 -70 73
q-40 0 -62.5 -50t-22.5 -132q0 -88 24 -134t61 -46q51 0 69 69q5 15 5 44z" />
    <glyph glyph-name="h" unicode="h" horiz-adv-x="405" 
d="M54 0v692h77v-260h2q15 25 41 43q26 17 64 17q50 0 81.5 -42t31.5 -129v-321h-77v312q0 115 -65 115q-57 0 -75 -77q-3 -16 -3 -36v-314h-77z" />
    <glyph glyph-name="i" unicode="i" horiz-adv-x="184" 
d="M131 0h-77v484h77v-484zM91 559h-1q-19 0 -31.5 14t-12.5 36t13 36t32 14q21 0 33.5 -13.5t12.5 -36.5t-12.5 -36.5t-33.5 -13.5z" />
    <glyph glyph-name="j" unicode="j" horiz-adv-x="188" 
d="M-18 -200l-10 61q47 11 65 37q23 35 23 154v432h77v-453q0 -75 -11.5 -116t-37.5 -70q-20 -20 -50.5 -32t-55.5 -13zM99 559h-1q-20 0 -32.5 14t-12.5 36t13 36t33 14t32.5 -13.5t12.5 -36.5t-12.5 -36.5t-32.5 -13.5z" />
    <glyph glyph-name="k" unicode="k" horiz-adv-x="354" 
d="M130 692v-433h2q23 49 26 54l96 171h83l-128 -204l140 -280h-86l-105 228l-28 -45v-183h-77v692h77z" />
    <glyph glyph-name="l" unicode="l" horiz-adv-x="191" 
d="M54 0v692h77v-692h-77z" />
    <glyph glyph-name="m" unicode="m" horiz-adv-x="620" 
d="M54 0v359q0 33 -2 75t-2 50h68l4 -59h2q36 67 108 67q77 0 102 -73h2q19 35 47 55q30 18 67 18q53 0 85 -41.5t32 -129.5v-321h-77v304q0 57 -14 90.5t-53 33.5q-24 0 -43.5 -19.5t-27.5 -53.5q-3 -12 -3 -43v-312h-77v318q0 110 -66 110q-25 0 -45.5 -20.5t-26.5 -58.5
q-3 -18 -3 -41v-308h-77z" />
    <glyph glyph-name="n" unicode="n" horiz-adv-x="405" 
d="M54 0v359q0 33 -2 75t-2 50h67l4 -58h2q36 66 111 66q53 0 85 -41t32 -126v-325h-77v312q0 115 -67 115q-25 0 -45.5 -20.5t-26.5 -58.5q-4 -15 -4 -43v-305h-77z" />
    <glyph glyph-name="o" unicode="o" horiz-adv-x="383" 
d="M191 -8h-1q-69 0 -113 63.5t-44 185.5q0 125 47 188t115 63q69 0 112.5 -63.5t43.5 -185.5q0 -129 -47.5 -190t-112.5 -61zM193 53h1q31 0 50 33t24.5 72t5.5 84t-5.5 83.5t-25 72t-51.5 33.5q-24 0 -41.5 -18.5t-25.5 -49t-11.5 -60t-3.5 -61.5q0 -34 3.5 -64t12 -60
t25.5 -47.5t42 -17.5z" />
    <glyph glyph-name="p" unicode="p" horiz-adv-x="399" 
d="M53 -192v525q0 15 -4 151h69l4 -61h2q35 69 102 69q65 0 102.5 -65.5t37.5 -183.5q0 -126 -43.5 -188.5t-105.5 -62.5q-59 0 -85 55h-2v-239h-77zM130 301v-124q0 -24 4 -40q18 -81 70 -81q45 0 65 52t20 133q0 82 -21 133.5t-64 51.5q-26 0 -47 -27t-24 -61
q-3 -12 -3 -37z" />
    <glyph glyph-name="q" unicode="q" horiz-adv-x="399" 
d="M269 -192v242h-3q-12 -26 -37 -42t-56 -16q-61 0 -100.5 64.5t-39.5 179.5q0 122 43.5 189t108.5 67q61 0 90 -64l2 -1l4 57h69q-4 -132 -4 -151v-525h-77zM269 178v125q0 23 -2 32q-5 39 -25 65t-46 26q-45 0 -65.5 -51.5t-20.5 -134.5q0 -82 21 -133t64 -51q51 0 70 80
q4 13 4 42z" />
    <glyph glyph-name="r" unicode="r" horiz-adv-x="248" 
d="M53 0v359q0 24 -2 71.5t-2 53.5h69l4 -76h2q12 36 40.5 60t61.5 24q11 0 16 -1v-79q-5 1 -16 1q-36 0 -61.5 -29t-31.5 -72q-3 -20 -3 -44v-268h-77z" />
    <glyph glyph-name="s" unicode="s" horiz-adv-x="289" 
d="M22 22l19 58q39 -25 78 -25q32 0 51.5 19t19.5 51q0 29 -13.5 50.5t-48.5 44.5q-97 63 -97 138q0 59 38 96.5t95 37.5q48 0 86 -25l-20 -58q-32 22 -65 22q-29 0 -45.5 -18t-16.5 -44q0 -25 12.5 -42t47.5 -41q100 -64 100 -148q0 -70 -41.5 -107t-104.5 -37
q-60 0 -95 28z" />
    <glyph glyph-name="t" unicode="t" horiz-adv-x="255" 
d="M71 566l77 31v-113h93v-58h-93v-288q0 -80 50 -80q19 0 31 3l4 -59q-22 -8 -57 -8q-51 0 -76 29q-29 32 -29 122v281h-59v58h59v82z" />
    <glyph glyph-name="u" unicode="u" horiz-adv-x="398" 
d="M344 484v-352q0 -32 2 -81.5t2 -50.5h-67l-6 51h-2q-13 -22 -40.5 -40.5t-62.5 -18.5q-118 0 -118 186v306h77v-295q0 -63 14 -97.5t51 -34.5q30 0 47.5 21t21.5 44q4 17 4 43v319h77z" />
    <glyph glyph-name="v" unicode="v" horiz-adv-x="347" 
d="M13 484h80l61 -272q13 -60 21 -118h3q5 36 20 118l60 272h76l-127 -484h-68z" />
    <glyph glyph-name="w" unicode="w" horiz-adv-x="566" 
d="M13 484h80l47 -237q20 -104 26 -154h4q9 64 30 152l56 239h59l53 -232q22 -100 31 -159h4q7 63 26 156l46 235h77l-122 -484h-63l-56 235q-14 54 -27 145h-2q-11 -75 -28 -148l-58 -232h-65z" />
    <glyph glyph-name="x" unicode="x" horiz-adv-x="340" 
d="M15 484h82l45 -103q14 -32 32 -85h2q15 43 33 85l43 103h79l-115 -238l114 -246h-84l-46 109q-8 18 -32 83h-2q-10 -29 -32 -83l-44 -109h-79l115 243z" />
    <glyph glyph-name="y" unicode="y" horiz-adv-x="346" 
d="M13 484h81l64 -278q5 -21 11 -54t9 -46h2q6 33 21 99l57 279h76l-79 -311q-57 -230 -120 -312q-40 -51 -87 -73l-28 65q38 22 68 61q29 38 44 82q5 14 5 24q0 12 -2 18z" />
    <glyph glyph-name="z" unicode="z" horiz-adv-x="313" 
d="M16 0v47l153 300q5 9 19 34t20 37v2h-173v64h259v-51l-152 -295q-4 -8 -12.5 -23t-15 -27t-11.5 -22v-2h190v-64h-277z" />
    <glyph glyph-name="braceleft" unicode="{" horiz-adv-x="253" 
d="M28 263l1 50q68 0 68 71q0 29 -6 85q-6 58 -6 89q0 64 34.5 96t90.5 32h12v-52h-14q-59 -7 -59 -75q0 -28 6 -78q5 -62 5 -74q1 -55 -16.5 -81t-52.5 -37v-2q35 -10 52.5 -36t16.5 -83q0 -26 -6 -74q-5 -65 -5 -78q0 -35 13.5 -53.5t46.5 -22.5h13v-52h-13
q-54 0 -89 30.5t-35 97.5q0 30 6 90q6 56 6 86q0 71 -69 71z" />
    <glyph glyph-name="bar" unicode="|" horiz-adv-x="201" 
d="M69 750h63v-1000h-63v1000z" />
    <glyph glyph-name="braceright" unicode="}" horiz-adv-x="253" 
d="M225 313l-1 -50q-68 0 -68 -71q0 -30 6 -86q6 -60 6 -90q0 -67 -35 -97.5t-89 -30.5h-13v52h13q33 4 46.5 22.5t13.5 53.5q0 13 -5 78q-6 48 -6 74q-1 57 16.5 83t52.5 36v2q-35 11 -52.5 37t-16.5 81q0 24 6 74q5 63 5 78q0 68 -59 75h-14v52h12q56 0 90.5 -32t34.5 -96
q0 -31 -6 -89q-6 -56 -6 -85q0 -71 69 -71z" />
    <glyph glyph-name="asciitilde" unicode="~" horiz-adv-x="596" 
d="M127 221h-54q-2 64 28.5 99t81.5 35q48 0 129 -42q78 -40 111 -40q49 0 47 78h53q4 -66 -23.5 -100.5t-78.5 -34.5q-53 0 -129 40q-81 43 -115 43q-51 0 -50 -78z" />
    <glyph glyph-name="exclamdown" unicode="&#xa1;" horiz-adv-x="204" 
d="M144 -189h-85l10 486h65zM102 496h1q22 0 35 -15t13 -40q0 -24 -13 -39t-36 -15q-21 0 -35 15t-14 39t14 39.5t35 15.5z" />
    <glyph glyph-name="cent" unicode="&#xa2;" horiz-adv-x="385" 
d="M253 -5h-55v97q-50 10 -86 51q-50 60 -50 185q0 88 37 151.5t100 77.5v94h55v-89q42 -2 67 -18l-14 -61q-33 18 -69 18q-51 0 -75 -54t-24 -125q0 -80 27.5 -126t76.5 -46q38 0 72 17l10 -57q-25 -17 -72 -20v-95z" />
    <glyph glyph-name="sterling" unicode="&#xa3;" horiz-adv-x="385" 
d="M353 0h-322v49q35 14 65 67t30 107q0 41 -5 81h-83v56h74q-14 63 -14 116q0 84 44.5 133t110.5 49q47 0 79 -20l-18 -61q-24 16 -61 16q-40 0 -60 -30.5t-20 -75.5q0 -53 13 -127h105v-56h-96q7 -79 -5 -126q-18 -67 -63 -110v-2h226v-66z" />
    <glyph glyph-name="currency" unicode="&#xa4;" horiz-adv-x="385" 
d="M193 528h1q56 0 94 -41l61 73l40 -41l-73 -73q24 -48 24 -117q0 -70 -24 -117l72 -74l-39 -41l-63 73q-38 -41 -95 -41q-58 0 -93 41l-61 -73l-40 41l71 72q-25 49 -25 117q0 67 26 119l-73 73l41 41l62 -74q36 42 94 42zM193 470h-1q-38 0 -59.5 -38t-21.5 -105
q0 -62 22.5 -101t58.5 -39q38 -1 59 38t21 103q0 63 -21 102.5t-58 39.5z" />
    <glyph glyph-name="yen" unicode="&#xa5;" horiz-adv-x="385" 
d="M225 0h-72v187h-125v46h125v74h-125v46h106l-119 297h77l67 -191q19 -52 34 -102h2q11 41 33 103l70 190h73l-127 -297h108v-46h-127v-74h127v-46h-127v-187z" />
    <glyph glyph-name="brokenbar" unicode="&#xa6;" horiz-adv-x="201" 
d="M69 174h63v-350h-63v350zM69 674h63v-350h-63v350z" />
    <glyph glyph-name="section" unicode="&#xa7;" horiz-adv-x="401" 
d="M91 354v-1q0 -49 80 -87q71 -33 100 -55q39 23 39 79q0 57 -69 89q-78 35 -104 54q-46 -30 -46 -79zM328 656l-18 -52q-37 24 -88 24q-37 0 -63.5 -18t-26.5 -55q0 -19 7 -33.5t24 -26.5t29 -18t39 -18q67 -28 103 -62.5t36 -95.5q0 -70 -60 -122q34 -34 34 -84
q0 -70 -47 -107.5t-117 -37.5q-82 0 -126 34l19 54q49 -34 110 -34q40 0 67 20t27 59q0 33 -23.5 56t-82.5 51q-71 33 -105.5 66.5t-34.5 88.5q0 65 69 118q-34 30 -35 81q0 64 47 101t114 37q61 0 102 -26z" />
    <glyph glyph-name="dieresis" unicode="&#xa8;" 
d="M73 566h-1q-18 0 -31 12.5t-13 31.5t13 32t32 13q18 0 30 -12.5t12 -32.5q0 -19 -12 -31.5t-30 -12.5zM229 566h-1q-18 0 -31 12.5t-13 31.5t13 32t32 13q18 0 30 -12.5t12 -32.5q0 -19 -12 -31.5t-30 -12.5z" />
    <glyph glyph-name="copyright" unicode="&#xa9;" horiz-adv-x="677" 
d="M340 648h1q127 0 215 -90t88 -218q0 -129 -88 -219.5t-216 -90.5q-129 0 -218 90.5t-89 219.5q0 128 89 218t218 90zM340 607h-1q-109 0 -182.5 -78t-73.5 -192q0 -112 74 -189t183 -77q107 -1 180.5 77t73.5 192q0 112 -74 189.5t-180 77.5zM474 495l-12 -40
q-44 22 -97 22q-67 0 -103.5 -39t-36.5 -101t37 -101.5t103 -39.5q56 0 100 23l12 -37q-48 -29 -122 -29q-83 0 -132.5 52t-49.5 129q0 83 55.5 134.5t137.5 51.5q34 0 65 -8t43 -17z" />
    <glyph glyph-name="ordfeminine" unicode="&#xaa;" horiz-adv-x="273" 
d="M243 263h-49l-4 35h-2q-25 -40 -76 -40q-35 0 -59.5 25.5t-24.5 67.5q0 57 44.5 86.5t112.5 29.5v11q0 63 -60 63q-35 0 -64 -21l-13 41q37 27 87 27q52 0 78 -31.5t26 -88.5v-131q0 -52 4 -74zM186 356v69q-21 0 -40.5 -3t-41.5 -19.5t-22 -45.5q0 -25 14.5 -39
t32.5 -14q31 0 49 30q8 12 8 22z" />
    <glyph glyph-name="guillemotleft" unicode="&#xab;" horiz-adv-x="354" 
d="M190 427l-103 -175l103 -174h-63l-102 174l103 175h62zM333 427l-104 -175l104 -174h-63l-102 174l103 175h62z" />
    <glyph glyph-name="logicalnot" unicode="&#xac;" horiz-adv-x="596" 
d="M40 398h516v-279h-56v224h-460v55z" />
    <glyph glyph-name="registered" unicode="&#xae;" horiz-adv-x="372" 
d="M161 508v-62h-33v156q33 5 56 5q34 0 52 -13q16 -11 16 -33q0 -26 -33 -37v-2q20 -6 28 -38q7 -32 12 -38h-36q-5 6 -12 38q-5 24 -33 24h-17zM162 578v-44h17q36 0 36 22q0 24 -33 24q-12 0 -20 -2zM186 683h1q65 0 110.5 -45.5t45.5 -110.5t-45.5 -111t-111.5 -46
q-65 0 -111 46t-46 111t46 110.5t111 45.5zM186 651h-1q-50 0 -84 -36.5t-34 -87.5q0 -52 34 -88t85 -36q50 -1 84.5 35t34.5 88t-34 88.5t-85 36.5z" />
    <glyph glyph-name="macron" unicode="&#xaf;" 
d="M52 631h197v-51h-197v51z" />
    <glyph glyph-name="macron" unicode="&#x2c9;" 
d="M52 631h197v-51h-197v51z" />
    <glyph glyph-name="degree" unicode="&#xb0;" horiz-adv-x="280" 
d="M151 685h1q51 0 86 -37.5t35 -90.5q0 -55 -37 -92t-86 -37q-52 0 -87 36.5t-35 90.5q-1 54 35.5 92t87.5 38zM150 644h-1q-31 0 -52.5 -26t-21.5 -63q0 -36 22 -61t54 -25t53.5 25t21.5 62q0 36 -21 62t-55 26z" />
    <glyph glyph-name="plusminus" unicode="&#xb1;" horiz-adv-x="596" 
d="M270 567h57v-194h230v-55h-230v-201h-57v201h-229v55h229v194zM41 55h516v-55h-516v55z" />
    <glyph glyph-name="twosuperior" unicode="&#xb2;" horiz-adv-x="245" 
d="M2 417v29l41 50q37 46 53.5 68t37 61.5t20.5 69.5q0 33 -16 49t-44 16q-34 0 -66 -27l-17 44q37 35 99 35q53 0 80.5 -30.5t27.5 -76.5q0 -76 -103 -197l-30 -37v-2h139v-52h-222z" />
    <glyph glyph-name="threesuperior" unicode="&#xb3;" horiz-adv-x="235" 
d="M30 743l-13 43q36 26 87 26q48 0 74.5 -26t26.5 -65q0 -64 -62 -89v-2q30 -7 52.5 -33t22.5 -65q0 -52 -36.5 -86t-98.5 -34q-47 0 -82 21l13 46q35 -19 70 -19q31 0 51 18.5t20 51.5q0 76 -89 76h-7v42h6q27 0 53.5 17t26.5 47q0 25 -14 38.5t-38 13.5q-34 0 -63 -21z
" />
    <glyph glyph-name="acute" unicode="&#xb4;" 
d="M188 682h79l-105 -135h-51z" />
    <glyph glyph-name="mu" unicode="&#xb5;" horiz-adv-x="399" 
d="M281 49h-2q-10 -18 -33.5 -35t-51.5 -17q-47 0 -67 35v-70q0 -104 9 -154h-70q-13 39 -13 146v530h77v-320q0 -108 64 -108q31 0 48.5 21t21.5 43q4 17 4 44v320h77v-380q0 -28 6.5 -41.5t24.5 -12.5l-8 -55q-10 -3 -26 -3q-49 0 -61 57z" />
    <glyph glyph-name="paragraph" unicode="&#xb6;" horiz-adv-x="401" 
d="M233 -50h-50v324h-6q-47 0 -94.5 47t-52.5 132q-5 93 52 157t171 64q44 0 89 -6v-718h-50v674h-59v-674z" />
    <glyph glyph-name="periodcentered" unicode="&#xb7;" horiz-adv-x="194" 
d="M97 202h-1q-21 0 -35.5 15.5t-14.5 41.5q0 24 15 40.5t36 16.5q23 0 37 -15.5t14 -41.5t-14 -41.5t-37 -15.5z" />
    <glyph glyph-name="periodcentered" unicode="&#x2219;" horiz-adv-x="194" 
d="M97 202h-1q-21 0 -35.5 15.5t-14.5 41.5q0 24 15 40.5t36 16.5q23 0 37 -15.5t14 -41.5t-14 -41.5t-37 -15.5z" />
    <glyph glyph-name="cedilla" unicode="&#xb8;" 
d="M144 5h48l-29 -55q27 -4 46.5 -24t19.5 -47q0 -40 -27 -59.5t-64 -19.5q-35 0 -67 18l16 42q24 -15 50 -15q36 0 36 30q0 37 -69 44z" />
    <glyph glyph-name="onesuperior" unicode="&#xb9;" horiz-adv-x="212" 
d="M157 417h-60v333h-2l-73 -39l-11 48l94 48h52v-390z" />
    <glyph glyph-name="ordmasculine" unicode="&#xba;" horiz-adv-x="302" 
d="M153 588h1q54 0 83.5 -41.5t29.5 -122.5q0 -85 -34 -125.5t-82 -40.5q-52 0 -84.5 42.5t-32.5 122.5q0 79 34.5 122t84.5 43zM150 543h-1q-29 0 -43 -37.5t-14 -82.5q0 -47 14.5 -83.5t43.5 -36.5q59 0 59 120t-59 120z" />
    <glyph glyph-name="guillemotright" unicode="&#xbb;" horiz-adv-x="354" 
d="M125 252l-104 175h62l103 -175l-101 -174h-64zM267 252l-103 175h62l103 -175l-102 -174h-63z" />
    <glyph glyph-name="onequarter" unicode="&#xbc;" horiz-adv-x="613" 
d="M177 263h-60v333h-2l-73 -39l-11 48l94 48h52v-390zM156 -8h-49l340 666h49zM536 0h-56v107h-147v35l144 251h59v-240h46v-46h-46v-107zM480 153v100q0 39 4 73h-2q-6 -13 -16.5 -34.5t-17.5 -34.5l-54 -102v-2h86z" />
    <glyph glyph-name="onehalf" unicode="&#xbd;" horiz-adv-x="613" 
d="M161 263h-60v333h-2l-73 -39l-11 48l94 48h52v-390zM132 -8h-49l340 666h48zM355 0v29l41 50q37 46 53.5 68t37 61.5t20.5 69.5q0 32 -16.5 48.5t-43.5 16.5q-35 0 -66 -27l-17 44q37 35 99 35q53 0 80.5 -30.5t27.5 -76.5q0 -76 -103 -197l-31 -37v-2h140v-52h-222z" />
    <glyph glyph-name="threequarters" unicode="&#xbe;" horiz-adv-x="613" 
d="M57 589l-12 43q36 26 87 26q48 0 74.5 -26t26.5 -65q0 -64 -63 -89v-2q30 -7 52.5 -33.5t22.5 -65.5q0 -52 -36.5 -85.5t-98.5 -33.5q-47 0 -82 21l13 47q32 -20 70 -20q31 0 51 18.5t20 51.5q0 37 -23 56.5t-65 19.5h-7v42h6q27 1 53.5 17.5t26.5 46.5q0 25 -14 38.5
t-38 13.5q-33 0 -64 -21zM173 -8h-49l340 666h49zM539 0h-56v107h-147v35l144 251h59v-240h46v-46h-46v-107zM483 153v100q0 39 4 73h-2q-18 -38 -35 -69l-55 -102v-2h88z" />
    <glyph glyph-name="questiondown" unicode="&#xbf;" horiz-adv-x="309" 
d="M175 496h1q21 0 35 -15.5t14 -40.5q0 -24 -13.5 -40t-36.5 -16q-22 0 -36 16t-14 40q0 25 13.5 40.5t36.5 15.5zM136 302h68l2 -15q14 -96 -42 -190q-2 -3 -10.5 -18t-10.5 -18t-8.5 -15.5t-8.5 -16.5t-6.5 -15t-6 -16.5t-4 -15t-3 -17.5t-0.5 -17q0 -41 21 -61t55 -20
q36 0 67 18l16 -59q-38 -26 -99 -26q-70 0 -104.5 39.5t-34.5 98.5q0 18 3.5 36t8 31.5t14 32t15 28t18 29.5t16.5 27q24 42 32 77.5t3 85.5z" />
    <glyph glyph-name="Agrave" unicode="&#xc0;" horiz-adv-x="435" 
d="M291 202h-150l-44 -202h-75l154 674h85l150 -674h-76zM152 264h128l-35 171q-10 49 -27 154h-3q-15 -94 -28 -155zM86 818h91l94 -108h-61z" />
    <glyph glyph-name="Aacute" unicode="&#xc1;" horiz-adv-x="435" 
d="M291 202h-150l-44 -202h-75l154 674h85l150 -674h-76zM152 264h128l-35 171q-10 49 -27 154h-3q-15 -94 -28 -155zM263 818h91l-124 -108h-61z" />
    <glyph glyph-name="Acircumflex" unicode="&#xc2;" horiz-adv-x="435" 
d="M291 202h-150l-44 -202h-75l154 674h85l150 -674h-76zM152 264h128l-35 171q-10 49 -27 154h-3q-15 -94 -28 -155zM187 808h66l87 -98h-67l-52 55h-2l-52 -55h-66z" />
    <glyph glyph-name="Atilde" unicode="&#xc3;" horiz-adv-x="435" 
d="M291 202h-150l-44 -202h-75l154 674h85l150 -674h-76zM152 264h128l-35 171q-10 49 -27 154h-3q-15 -94 -28 -155zM156 718h-41q-1 43 15 68.5t44 25.5q19 0 47 -17q30 -18 40 -18q12 0 18 8t8 29h40q2 -90 -62 -90q-24 0 -49 17q-26 16 -36 16q-20 0 -24 -39z" />
    <glyph glyph-name="Adieresis" unicode="&#xc4;" horiz-adv-x="435" 
d="M291 202h-150l-44 -202h-75l154 674h85l150 -674h-76zM152 264h128l-35 171q-10 49 -27 154h-3q-15 -94 -28 -155zM140 718h-1q-18 0 -30 13t-12 34q0 19 12.5 32.5t30.5 13.5q19 0 31 -13t12 -33q0 -21 -12 -34t-31 -13zM301 718h-1q-18 0 -30 13t-12 34q0 19 12.5 32.5
t30.5 13.5q19 0 31 -13t12 -33q0 -21 -12 -34t-31 -13z" />
    <glyph glyph-name="Aring" unicode="&#xc5;" horiz-adv-x="435" 
d="M291 202h-150l-44 -202h-75l154 674h85l150 -674h-76zM152 264h128l-35 171q-10 49 -27 154h-3q-15 -94 -28 -155zM221 871h1q42 0 67 -25.5t25 -62.5q0 -36 -26 -61.5t-67 -25.5q-43 0 -68.5 25t-25.5 61q0 37 26 63t68 26zM220 835h-1q-21 0 -32.5 -15.5t-11.5 -37.5
q0 -19 12.5 -34t32.5 -15q21 0 33.5 14.5t12.5 36.5q0 21 -12.5 36t-33.5 15z" />
    <glyph glyph-name="AE" unicode="&#xc6;" horiz-adv-x="556" 
d="M84 0h-76l204 674h304l-1 -67h-185l12 -226h172v-65h-166l14 -249h180l-1 -67h-247l-14 222h-134zM163 284h112l-9 205q-1 23 -3.5 67.5t-3.5 63.5h-5q-5 -20 -18.5 -70t-19.5 -73z" />
    <glyph glyph-name="Ccedilla" unicode="&#xc7;" horiz-adv-x="396" 
d="M342 77l12 -65q-31 -15 -82 -17l-22 -44q26 -4 45.5 -24t19.5 -47q0 -40 -27 -59.5t-64 -19.5q-35 0 -67 18l16 42q24 -15 50 -15q36 0 36 31q0 36 -68 44l35 76q-89 13 -141.5 95.5t-52.5 236.5q0 95 22 166.5t58 110t75.5 56.5t82.5 18q58 0 84 -17l-17 -65
q-32 14 -68 14q-62 0 -109 -67t-47 -208q0 -144 44.5 -209t113.5 -65q39 0 71 14z" />
    <glyph glyph-name="Egrave" unicode="&#xc8;" horiz-adv-x="354" 
d="M306 385v-65h-169v-253h192v-67h-269v674h257v-67h-180v-222h169zM56 818h91l94 -108h-61z" />
    <glyph glyph-name="Eacute" unicode="&#xc9;" horiz-adv-x="354" 
d="M306 385v-65h-169v-253h192v-67h-269v674h257v-67h-180v-222h169zM246 818h91l-124 -108h-61z" />
    <glyph glyph-name="Ecircumflex" unicode="&#xca;" horiz-adv-x="354" 
d="M306 385v-65h-169v-253h192v-67h-269v674h257v-67h-180v-222h169zM156 808h66l87 -98h-67l-52 55h-2l-52 -55h-66z" />
    <glyph glyph-name="Edieresis" unicode="&#xcb;" horiz-adv-x="354" 
d="M306 385v-65h-169v-253h192v-67h-269v674h257v-67h-180v-222h169zM109 725h-1q-18 0 -30 13t-12 34q0 19 12.5 32.5t30.5 13.5q19 0 31 -13t12 -33q0 -21 -12 -34t-31 -13zM270 725h-1q-18 0 -30 13t-12 34q0 19 12.5 32.5t30.5 13.5q19 0 31 -13t12 -33q0 -21 -12 -34
t-31 -13z" />
    <glyph glyph-name="Igrave" unicode="&#xcc;" horiz-adv-x="199" 
d="M60 674h77v-674h-77v674zM-42 818h91l94 -108h-61z" />
    <glyph glyph-name="Iacute" unicode="&#xcd;" horiz-adv-x="199" 
d="M60 674h77v-674h-77v674zM140 818h91l-124 -108h-61z" />
    <glyph glyph-name="Icircumflex" unicode="&#xce;" horiz-adv-x="199" 
d="M60 674h77v-674h-77v674zM67 808h66l87 -98h-67l-52 55h-2l-52 -55h-66z" />
    <glyph glyph-name="Idieresis" unicode="&#xcf;" horiz-adv-x="199" 
d="M60 674h77v-674h-77v674zM19 725h-1q-18 0 -30 13t-12 34q0 19 12.5 32.5t30.5 13.5q19 0 31 -13t12 -33q0 -21 -12 -34t-31 -13zM180 725h-1q-18 0 -30 13t-12 34q0 19 12.5 32.5t30.5 13.5q19 0 31 -13t12 -33q0 -21 -12 -34t-31 -13z" />
    <glyph glyph-name="Eth" unicode="&#xd0;" horiz-adv-x="453" 
d="M0 323v58h69v283q42 13 104 13q100 0 157 -51q91 -79 91 -274q0 -197 -81 -286q-63 -72 -185 -72q-53 0 -86 6v323h-69zM247 381v-58h-101v-263q11 -2 29 -2q73 0 119.5 66.5t46.5 227.5q0 262 -159 262q-16 0 -36 -4v-229h101z" />
    <glyph glyph-name="Ntilde" unicode="&#xd1;" horiz-adv-x="465" 
d="M130 0h-69v674h72l124 -316q67 -175 86 -235h2q-9 159 -9 310v241h69v-674h-72l-128 324q-51 124 -81 229h-2q8 -120 8 -320v-233zM171 718h-41q-1 43 15 68.5t44 25.5q19 0 47 -17q30 -18 40 -18q12 0 18 8t8 29h40q2 -90 -62 -90q-24 0 -49 17q-26 16 -36 16
q-19 0 -24 -39z" />
    <glyph glyph-name="Ograve" unicode="&#xd2;" horiz-adv-x="446" 
d="M220 -8h-1q-86 0 -136.5 89.5t-50.5 256.5q0 164 54 254t144 90q86 0 135 -89.5t49 -250.5q0 -179 -53.5 -264.5t-140.5 -85.5zM224 60h1q31 0 53 24.5t34 66.5t17 88t5 100q0 51 -5 96.5t-17 87.5t-34.5 66.5t-53.5 24.5q-41 0 -67.5 -44t-35.5 -102.5t-9 -129.5
q0 -53 5.5 -99.5t17.5 -88t35 -66t54 -24.5zM86 818h91l94 -108h-61z" />
    <glyph glyph-name="Oacute" unicode="&#xd3;" horiz-adv-x="446" 
d="M220 -8h-1q-86 0 -136.5 89.5t-50.5 256.5q0 164 54 254t144 90q86 0 135 -89.5t49 -250.5q0 -179 -53.5 -264.5t-140.5 -85.5zM224 60h1q31 0 53 24.5t34 66.5t17 88t5 100q0 51 -5 96.5t-17 87.5t-34.5 66.5t-53.5 24.5q-41 0 -67.5 -44t-35.5 -102.5t-9 -129.5
q0 -53 5.5 -99.5t17.5 -88t35 -66t54 -24.5zM269 818h91l-124 -108h-61z" />
    <glyph glyph-name="Ocircumflex" unicode="&#xd4;" horiz-adv-x="446" 
d="M220 -8h-1q-86 0 -136.5 89.5t-50.5 256.5q0 164 54 254t144 90q86 0 135 -89.5t49 -250.5q0 -179 -53.5 -264.5t-140.5 -85.5zM224 60h1q31 0 53 24.5t34 66.5t17 88t5 100q0 51 -5 96.5t-17 87.5t-34.5 66.5t-53.5 24.5q-41 0 -67.5 -44t-35.5 -102.5t-9 -129.5
q0 -53 5.5 -99.5t17.5 -88t35 -66t54 -24.5zM191 808h66l87 -98h-67l-52 55h-2l-52 -55h-66z" />
    <glyph glyph-name="Otilde" unicode="&#xd5;" horiz-adv-x="446" 
d="M220 -8h-1q-86 0 -136.5 89.5t-50.5 256.5q0 164 54 254t144 90q86 0 135 -89.5t49 -250.5q0 -179 -53.5 -264.5t-140.5 -85.5zM224 60h1q31 0 53 24.5t34 66.5t17 88t5 100q0 51 -5 96.5t-17 87.5t-34.5 66.5t-53.5 24.5q-41 0 -67.5 -44t-35.5 -102.5t-9 -129.5
q0 -53 5.5 -99.5t17.5 -88t35 -66t54 -24.5zM158 716h-41q-1 43 15 68.5t44 25.5q19 0 47 -17q30 -18 40 -18q12 0 18 8t8 29h40q2 -90 -62 -90q-24 0 -49 17q-26 16 -36 16q-20 0 -24 -39z" />
    <glyph glyph-name="Odieresis" unicode="&#xd6;" horiz-adv-x="446" 
d="M220 -8h-1q-86 0 -136.5 89.5t-50.5 256.5q0 164 54 254t144 90q86 0 135 -89.5t49 -250.5q0 -179 -53.5 -264.5t-140.5 -85.5zM224 60h1q31 0 53 24.5t34 66.5t17 88t5 100q0 51 -5 96.5t-17 87.5t-34.5 66.5t-53.5 24.5q-41 0 -67.5 -44t-35.5 -102.5t-9 -129.5
q0 -53 5.5 -99.5t17.5 -88t35 -66t54 -24.5zM142 725h-1q-18 0 -30 13t-12 34q0 19 12.5 32.5t30.5 13.5q19 0 31 -13t12 -33q0 -21 -12 -34t-31 -13zM303 725h-1q-18 0 -30 13t-12 34q0 19 12.5 32.5t30.5 13.5q19 0 31 -13t12 -33q0 -21 -12 -34t-31 -13z" />
    <glyph glyph-name="multiply" unicode="&#xd7;" horiz-adv-x="596" 
d="M40 486l37 40l221 -225l221 225l37 -40l-219 -224l218 -221l-38 -41l-219 224l-220 -224l-38 41l219 222z" />
    <glyph glyph-name="Oslash" unicode="&#xd8;" horiz-adv-x="446" 
d="M86 -37l-42 23l42 95q-54 88 -54 256q0 164 53 254.5t139 90.5q59 0 101 -41l30 70l46 -20l-40 -91q53 -90 53 -257q0 -179 -53.5 -265t-137.5 -86q-62 0 -103 46zM129 171l164 399q-29 44 -69 44q-31 0 -54 -23.5t-36 -64t-19 -87.5t-6 -101q0 -103 18 -167h2zM317 507
l-168 -397q28 -50 75 -50q41 0 67.5 42.5t36 102t9.5 134.5q0 102 -18 167z" />
    <glyph glyph-name="Ugrave" unicode="&#xd9;" horiz-adv-x="457" 
d="M59 674h77v-452q0 -162 91 -162q94 0 94 162v452h77v-440q0 -125 -46 -183.5t-126 -58.5q-167 0 -167 233v449zM87 818h91l94 -108h-61z" />
    <glyph glyph-name="Uacute" unicode="&#xda;" horiz-adv-x="457" 
d="M59 674h77v-452q0 -162 91 -162q94 0 94 162v452h77v-440q0 -125 -46 -183.5t-126 -58.5q-167 0 -167 233v449zM278 818h91l-124 -108h-61z" />
    <glyph glyph-name="Ucircumflex" unicode="&#xdb;" horiz-adv-x="457" 
d="M59 674h77v-452q0 -162 91 -162q94 0 94 162v452h77v-440q0 -125 -46 -183.5t-126 -58.5q-167 0 -167 233v449zM198 808h66l87 -98h-67l-52 55h-2l-52 -55h-66z" />
    <glyph glyph-name="Udieresis" unicode="&#xdc;" horiz-adv-x="457" 
d="M59 674h77v-452q0 -162 91 -162q94 0 94 162v452h77v-440q0 -125 -46 -183.5t-126 -58.5q-167 0 -167 233v449zM148 725h-1q-18 0 -30 13t-12 34q0 19 12.5 32.5t30.5 13.5q19 0 31 -13t12 -33q0 -21 -12 -34t-31 -13zM309 725h-1q-18 0 -30 13t-12 34q0 19 12.5 32.5
t30.5 13.5q19 0 31 -13t12 -33q0 -21 -12 -34t-31 -13z" />
    <glyph glyph-name="Yacute" unicode="&#xdd;" horiz-adv-x="394" 
d="M235 0h-77v285l-149 389h82l60 -169q40 -118 50 -152h2q12 48 49 155l57 166h80l-154 -386v-288zM252 818h91l-124 -108h-61z" />
    <glyph glyph-name="Thorn" unicode="&#xde;" horiz-adv-x="396" 
d="M61 0v674h75v-133q20 3 51 3q86 0 134 -48q49 -48 49 -133q0 -98 -56.5 -150t-139.5 -52q-16 0 -38 4v-165h-75zM136 478v-249q12 -4 35 -4q57 0 89.5 35t32.5 97q0 124 -116 124q-25 0 -41 -3z" />
    <glyph glyph-name="germandbls" unicode="&#xdf;" horiz-adv-x="430" 
d="M131 0h-77v450q0 145 63 205q47 45 117 45q61 0 104 -40t43 -116q0 -47 -24 -83q-66 -25 -66 -81q0 -23 10.5 -42t34.5 -47q67 -75 67 -149q0 -70 -45.5 -110t-110.5 -40q-45 0 -79 15l13 60q25 -13 65 -13q38 0 60.5 23t22.5 57q0 48 -52 109q-20 23 -30 37t-19.5 38.5
t-9.5 50.5q0 40 22 71.5t58 47.5q9 20 9 49q0 53 -25 76t-56 23q-95 0 -95 -191v-445z" />
    <glyph glyph-name="agrave" unicode="&#xe0;" horiz-adv-x="364" 
d="M309 320v-210q0 -79 5 -110h-69l-5 51h-3q-33 -59 -96 -59q-50 0 -82.5 38t-32.5 100q0 86 58.5 130.5t147.5 45.5v15q0 53 -17 81.5t-60 28.5q-44 0 -80 -25l-17 54q45 32 113 32q138 0 138 -172zM234 153v98q-133 0 -133 -113q0 -44 17.5 -65t41.5 -21q26 0 45 19
t26 54q3 13 3 28zM58 682h79l77 -135h-51z" />
    <glyph glyph-name="aacute" unicode="&#xe1;" horiz-adv-x="364" 
d="M309 320v-210q0 -79 5 -110h-69l-5 51h-3q-33 -59 -96 -59q-50 0 -82.5 38t-32.5 100q0 86 58.5 130.5t147.5 45.5v15q0 53 -17 81.5t-60 28.5q-44 0 -80 -25l-17 54q45 32 113 32q138 0 138 -172zM234 153v98q-133 0 -133 -113q0 -44 17.5 -65t41.5 -21q26 0 45 19
t26 54q3 13 3 28zM218 682h79l-105 -135h-51z" />
    <glyph glyph-name="acircumflex" unicode="&#xe2;" horiz-adv-x="364" 
d="M309 320v-210q0 -79 5 -110h-69l-5 51h-3q-33 -59 -96 -59q-50 0 -82.5 38t-32.5 100q0 86 58.5 130.5t147.5 45.5v15q0 53 -17 81.5t-60 28.5q-44 0 -80 -25l-17 54q45 32 113 32q138 0 138 -172zM234 153v98q-133 0 -133 -113q0 -44 17.5 -65t41.5 -21q26 0 45 19
t26 54q3 13 3 28zM153 682h52l79 -135h-58l-46 87h-2l-46 -87h-58z" />
    <glyph glyph-name="atilde" unicode="&#xe3;" horiz-adv-x="364" 
d="M309 320v-210q0 -79 5 -110h-69l-5 51h-3q-33 -59 -96 -59q-50 0 -82.5 38t-32.5 100q0 86 58.5 130.5t147.5 45.5v15q0 53 -17 81.5t-60 28.5q-44 0 -80 -25l-17 54q45 32 113 32q138 0 138 -172zM234 153v98q-133 0 -133 -113q0 -44 17.5 -65t41.5 -21q26 0 45 19
t26 54q3 13 3 28zM116 561h-43q-1 41 15.5 67.5t46.5 26.5q21 0 49 -18q32 -17 40 -17q24 0 25 36h41q0 -89 -63 -89q-19 0 -49 17t-38 17q-21 0 -24 -40z" />
    <glyph glyph-name="adieresis" unicode="&#xe4;" horiz-adv-x="364" 
d="M309 320v-210q0 -79 5 -110h-69l-5 51h-3q-33 -59 -96 -59q-50 0 -82.5 38t-32.5 100q0 86 58.5 130.5t147.5 45.5v15q0 53 -17 81.5t-60 28.5q-44 0 -80 -25l-17 54q45 32 113 32q138 0 138 -172zM234 153v98q-133 0 -133 -113q0 -44 17.5 -65t41.5 -21q26 0 45 19
t26 54q3 13 3 28zM105 566h-1q-18 0 -31 12.5t-13 31.5t13 32t32 13q18 0 30 -12.5t12 -32.5q0 -19 -12 -31.5t-30 -12.5zM261 566h-1q-18 0 -31 12.5t-13 31.5t13 32t32 13q18 0 30 -12.5t12 -32.5q0 -19 -12 -31.5t-30 -12.5z" />
    <glyph glyph-name="aring" unicode="&#xe5;" horiz-adv-x="364" 
d="M309 320v-210q0 -79 5 -110h-69l-5 51h-3q-33 -59 -96 -59q-50 0 -82.5 38t-32.5 100q0 86 58.5 130.5t147.5 45.5v15q0 53 -17 81.5t-60 28.5q-44 0 -80 -25l-17 54q45 32 113 32q138 0 138 -172zM234 153v98q-133 0 -133 -113q0 -44 17.5 -65t41.5 -21q26 0 45 19
t26 54q3 13 3 28zM181 707h1q41 0 66 -25t25 -63q0 -36 -26.5 -61t-65.5 -25q-42 0 -68 24.5t-26 60.5q0 38 25.5 63.5t68.5 25.5zM180 672h-1q-21 0 -33 -16t-12 -38q0 -19 12.5 -34.5t33.5 -15.5q22 0 35 15t13 37t-12.5 37t-35.5 15z" />
    <glyph glyph-name="ae" unicode="&#xe6;" horiz-adv-x="561" 
d="M531 241h-225q0 -188 114 -188q45 0 82 21l14 -55q-43 -27 -112 -27q-45 0 -82 24.5t-51 68.5h-2q-16 -44 -48 -68.5t-76 -24.5q-52 0 -85.5 38.5t-33.5 101.5q0 83 59 126.5t148 44.5v26q0 46 -20 74.5t-61 28.5q-42 0 -78 -25l-17 53q47 32 111 32q40 0 70.5 -22
t40.5 -65h2q16 41 47.5 64t70.5 23q66 0 99.5 -62t33.5 -151q0 -7 -0.5 -19t-0.5 -19zM234 154v95q-21 0 -39.5 -3.5t-43 -13.5t-39 -34.5t-14.5 -60.5q0 -42 18.5 -63t44.5 -21q25 0 44 19.5t26 53.5q3 14 3 28zM308 296h150q2 66 -18.5 102t-50.5 36q-37 0 -58 -41
t-23 -97z" />
    <glyph glyph-name="ccedilla" unicode="&#xe7;" horiz-adv-x="301" 
d="M280 72l12 -59q-31 -17 -77 -19l-23 -44q27 -4 46.5 -24t19.5 -47q0 -40 -27 -59.5t-64 -19.5q-35 0 -67 18l16 42q24 -15 50 -15q36 0 36 31q0 37 -69 44l36 79q-63 15 -99.5 76.5t-36.5 163.5q0 108 51.5 180t139.5 72q43 0 68 -16l-15 -62q-26 13 -55 13
q-55 0 -83.5 -54.5t-28.5 -132.5q0 -85 30.5 -133t83.5 -48q33 0 56 14z" />
    <glyph glyph-name="egrave" unicode="&#xe8;" horiz-adv-x="363" 
d="M332 235h-224q1 -180 114 -180q46 0 80 18l13 -56q-41 -23 -107 -23q-85 0 -130 64.5t-45 178.5q0 117 45 186t118 69q69 0 103.5 -61.5t34.5 -151.5q0 -20 -2 -44zM109 292h151q1 68 -20.5 104t-51.5 36q-35 0 -55.5 -42.5t-23.5 -97.5zM75 682h79l77 -135h-51z" />
    <glyph glyph-name="eacute" unicode="&#xe9;" horiz-adv-x="363" 
d="M332 235h-224q1 -180 114 -180q46 0 80 18l13 -56q-41 -23 -107 -23q-85 0 -130 64.5t-45 178.5q0 117 45 186t118 69q69 0 103.5 -61.5t34.5 -151.5q0 -20 -2 -44zM109 292h151q1 68 -20.5 104t-51.5 36q-35 0 -55.5 -42.5t-23.5 -97.5zM236 682h79l-105 -135h-51z" />
    <glyph glyph-name="ecircumflex" unicode="&#xea;" horiz-adv-x="363" 
d="M332 235h-224q1 -180 114 -180q46 0 80 18l13 -56q-41 -23 -107 -23q-85 0 -130 64.5t-45 178.5q0 117 45 186t118 69q69 0 103.5 -61.5t34.5 -151.5q0 -20 -2 -44zM109 292h151q1 68 -20.5 104t-51.5 36q-35 0 -55.5 -42.5t-23.5 -97.5zM169 682h52l79 -135h-58l-46 87
h-2l-46 -87h-58z" />
    <glyph glyph-name="edieresis" unicode="&#xeb;" horiz-adv-x="363" 
d="M332 235h-224q1 -180 114 -180q46 0 80 18l13 -56q-41 -23 -107 -23q-85 0 -130 64.5t-45 178.5q0 117 45 186t118 69q69 0 103.5 -61.5t34.5 -151.5q0 -20 -2 -44zM109 292h151q1 68 -20.5 104t-51.5 36q-35 0 -55.5 -42.5t-23.5 -97.5zM121 566h-1q-18 0 -31 12.5
t-13 31.5t13 32t32 13q18 0 30 -12.5t12 -32.5q0 -19 -12 -31.5t-30 -12.5zM277 566h-1q-18 0 -31 12.5t-13 31.5t13 32t32 13q18 0 30 -12.5t12 -32.5q0 -19 -12 -31.5t-30 -12.5z" />
    <glyph glyph-name="igrave" unicode="&#xec;" horiz-adv-x="184" 
d="M131 0h-77v484h77v-484zM-29 682h79l77 -135h-51z" />
    <glyph glyph-name="iacute" unicode="&#xed;" horiz-adv-x="184" 
d="M131 0h-77v484h77v-484zM130 682h79l-105 -135h-51z" />
    <glyph glyph-name="icircumflex" unicode="&#xee;" horiz-adv-x="184" 
d="M131 0h-77v484h77v-484zM66 682h52l79 -135h-58l-46 87h-2l-46 -87h-58z" />
    <glyph glyph-name="idieresis" unicode="&#xef;" horiz-adv-x="184" 
d="M131 0h-77v484h77v-484zM15 566h-1q-18 0 -31 12.5t-13 31.5t13 32t32 13q18 0 30 -12.5t12 -32.5q0 -19 -12 -31.5t-30 -12.5zM171 566h-1q-18 0 -31 12.5t-13 31.5t13 32t32 13q18 0 30 -12.5t12 -32.5q0 -19 -12 -31.5t-30 -12.5z" />
    <glyph glyph-name="eth" unicode="&#xf0;" horiz-adv-x="381" 
d="M191 53h1q31 0 49.5 32.5t24 70t5.5 81.5q0 103 -15 145q-15 49 -64 49q-25 0 -42.5 -19t-25.5 -50.5t-11 -59.5t-3 -59q0 -47 5.5 -86t25 -71.5t50.5 -32.5zM79 508l-20 33l84 48q-10 12 -71 73l45 41q63 -59 84 -82l91 51l20 -33l-83 -48q48 -59 79 -126
q40 -86 40 -218q0 -68 -14 -119.5t-38 -80t-51.5 -42t-56.5 -13.5q-69 0 -112 63.5t-43 185.5q0 116 42 178.5t101 66.5q32 2 54 -15l2 3q-19 41 -59 86z" />
    <glyph glyph-name="ntilde" unicode="&#xf1;" horiz-adv-x="405" 
d="M54 0v359q0 33 -2 75t-2 50h67l4 -58h2q36 66 111 66q53 0 85 -41t32 -126v-325h-77v312q0 115 -67 115q-25 0 -45.5 -20.5t-26.5 -58.5q-4 -15 -4 -43v-305h-77zM139 561h-43q-1 41 15.5 67.5t46.5 26.5q21 0 49 -18q32 -17 40 -17q24 0 25 36h41q0 -89 -63 -89
q-19 0 -49 17t-38 17q-21 0 -24 -40z" />
    <glyph glyph-name="ograve" unicode="&#xf2;" horiz-adv-x="383" 
d="M191 -8h-1q-69 0 -113 63.5t-44 185.5q0 125 47 188t115 63q69 0 112.5 -63.5t43.5 -185.5q0 -129 -47.5 -190t-112.5 -61zM193 53h1q31 0 50 33t24.5 72t5.5 84t-5.5 83.5t-25 72t-51.5 33.5q-24 0 -41.5 -18.5t-25.5 -49t-11.5 -60t-3.5 -61.5q0 -34 3.5 -64t12 -60
t25.5 -47.5t42 -17.5zM77 682h79l77 -135h-51z" />
    <glyph glyph-name="oacute" unicode="&#xf3;" horiz-adv-x="383" 
d="M191 -8h-1q-69 0 -113 63.5t-44 185.5q0 125 47 188t115 63q69 0 112.5 -63.5t43.5 -185.5q0 -129 -47.5 -190t-112.5 -61zM193 53h1q31 0 50 33t24.5 72t5.5 84t-5.5 83.5t-25 72t-51.5 33.5q-24 0 -41.5 -18.5t-25.5 -49t-11.5 -60t-3.5 -61.5q0 -34 3.5 -64t12 -60
t25.5 -47.5t42 -17.5zM232 682h79l-105 -135h-51z" />
    <glyph glyph-name="ocircumflex" unicode="&#xf4;" horiz-adv-x="383" 
d="M191 -8h-1q-69 0 -113 63.5t-44 185.5q0 125 47 188t115 63q69 0 112.5 -63.5t43.5 -185.5q0 -129 -47.5 -190t-112.5 -61zM193 53h1q31 0 50 33t24.5 72t5.5 84t-5.5 83.5t-25 72t-51.5 33.5q-24 0 -41.5 -18.5t-25.5 -49t-11.5 -60t-3.5 -61.5q0 -34 3.5 -64t12 -60
t25.5 -47.5t42 -17.5zM166 682h52l79 -135h-58l-46 87h-2l-46 -87h-58z" />
    <glyph glyph-name="otilde" unicode="&#xf5;" horiz-adv-x="383" 
d="M191 -8h-1q-69 0 -113 63.5t-44 185.5q0 125 47 188t115 63q69 0 112.5 -63.5t43.5 -185.5q0 -129 -47.5 -190t-112.5 -61zM193 53h1q31 0 50 33t24.5 72t5.5 84t-5.5 83.5t-25 72t-51.5 33.5q-24 0 -41.5 -18.5t-25.5 -49t-11.5 -60t-3.5 -61.5q0 -34 3.5 -64t12 -60
t25.5 -47.5t42 -17.5zM126 561h-43q-1 41 15.5 67.5t46.5 26.5q21 0 49 -18q32 -17 40 -17q24 0 25 36h41q0 -89 -63 -89q-19 0 -49 17t-38 17q-21 0 -24 -40z" />
    <glyph glyph-name="odieresis" unicode="&#xf6;" horiz-adv-x="383" 
d="M191 -8h-1q-69 0 -113 63.5t-44 185.5q0 125 47 188t115 63q69 0 112.5 -63.5t43.5 -185.5q0 -129 -47.5 -190t-112.5 -61zM193 53h1q31 0 50 33t24.5 72t5.5 84t-5.5 83.5t-25 72t-51.5 33.5q-24 0 -41.5 -18.5t-25.5 -49t-11.5 -60t-3.5 -61.5q0 -34 3.5 -64t12 -60
t25.5 -47.5t42 -17.5zM115 566h-1q-18 0 -31 12.5t-13 31.5t13 32t32 13q18 0 30 -12.5t12 -32.5q0 -19 -12 -31.5t-30 -12.5zM271 566h-1q-18 0 -31 12.5t-13 31.5t13 32t32 13q18 0 30 -12.5t12 -32.5q0 -19 -12 -31.5t-30 -12.5z" />
    <glyph glyph-name="divide" unicode="&#xf7;" horiz-adv-x="596" 
d="M298 396h-1q-19 0 -31 13t-12 33t12.5 33.5t32.5 13.5t32 -13t12 -34q0 -20 -12 -33t-33 -13zM556 239h-516v55h516v-55zM298 44h-1q-19 0 -31 13t-12 33t12.5 33.5t32.5 13.5t32 -13t12 -34q0 -20 -12 -33t-33 -13z" />
    <glyph glyph-name="oslash" unicode="&#xf8;" horiz-adv-x="383" 
d="M193 492h1q44 0 80 -29l26 52l41 -21l-33 -69q43 -64 43 -183q0 -128 -47.5 -189t-110.5 -61q-47 0 -82 28l-25 -53l-39 25l31 64q-45 66 -45 185q0 124 47 187.5t113 63.5zM122 130l122 269q-14 32 -52 32q-26 0 -44 -19t-26.5 -50.5t-11.5 -60t-3 -59.5q0 -63 13 -110z
M263 348l-120 -265q17 -30 50 -30q25 0 42.5 17.5t26 47t12 58.5t3.5 61q0 66 -12 110z" />
    <glyph glyph-name="ugrave" unicode="&#xf9;" horiz-adv-x="398" 
d="M344 484v-352q0 -32 2 -81.5t2 -50.5h-67l-6 51h-2q-13 -22 -40.5 -40.5t-62.5 -18.5q-118 0 -118 186v306h77v-295q0 -63 14 -97.5t51 -34.5q30 0 47.5 21t21.5 44q4 17 4 43v319h77zM85 682h79l77 -135h-51z" />
    <glyph glyph-name="uacute" unicode="&#xfa;" horiz-adv-x="398" 
d="M344 484v-352q0 -32 2 -81.5t2 -50.5h-67l-6 51h-2q-13 -22 -40.5 -40.5t-62.5 -18.5q-118 0 -118 186v306h77v-295q0 -63 14 -97.5t51 -34.5q30 0 47.5 21t21.5 44q4 17 4 43v319h77zM245 682h79l-105 -135h-51z" />
    <glyph glyph-name="ucircumflex" unicode="&#xfb;" horiz-adv-x="398" 
d="M344 484v-352q0 -32 2 -81.5t2 -50.5h-67l-6 51h-2q-13 -22 -40.5 -40.5t-62.5 -18.5q-118 0 -118 186v306h77v-295q0 -63 14 -97.5t51 -34.5q30 0 47.5 21t21.5 44q4 17 4 43v319h77zM173 682h52l79 -135h-58l-46 87h-2l-46 -87h-58z" />
    <glyph glyph-name="udieresis" unicode="&#xfc;" horiz-adv-x="398" 
d="M344 484v-352q0 -32 2 -81.5t2 -50.5h-67l-6 51h-2q-13 -22 -40.5 -40.5t-62.5 -18.5q-118 0 -118 186v306h77v-295q0 -63 14 -97.5t51 -34.5q30 0 47.5 21t21.5 44q4 17 4 43v319h77zM125 566h-1q-18 0 -31 12.5t-13 31.5t13 32t32 13q18 0 30 -12.5t12 -32.5
q0 -19 -12 -31.5t-30 -12.5zM281 566h-1q-18 0 -31 12.5t-13 31.5t13 32t32 13q18 0 30 -12.5t12 -32.5q0 -19 -12 -31.5t-30 -12.5z" />
    <glyph glyph-name="yacute" unicode="&#xfd;" horiz-adv-x="346" 
d="M13 484h81l64 -278q5 -21 11 -54t9 -46h2q6 33 21 99l57 279h76l-79 -311q-57 -230 -120 -312q-40 -51 -87 -73l-28 65q38 22 68 61q29 38 44 82q5 14 5 24q0 12 -2 18zM217 682h79l-105 -135h-51z" />
    <glyph glyph-name="thorn" unicode="&#xfe;" horiz-adv-x="399" 
d="M53 665h77v-240h2q31 67 100 67q60 0 97 -66t37 -183q0 -125 -43 -188t-102 -63q-62 0 -89 56h-2v-240h-77v857zM130 301v-124q0 -25 4 -41q18 -80 71 -80q44 0 64 51.5t20 133.5t-20.5 133.5t-63.5 51.5q-26 0 -47 -26.5t-25 -61.5q-3 -18 -3 -37z" />
    <glyph glyph-name="ydieresis" unicode="&#xff;" horiz-adv-x="346" 
d="M13 484h81l64 -278q5 -21 11 -54t9 -46h2q6 33 21 99l57 279h76l-79 -311q-57 -230 -120 -312q-40 -51 -87 -73l-28 65q38 22 68 61q29 38 44 82q5 14 5 24q0 12 -2 18zM100 566h-1q-18 0 -31 12.5t-13 31.5t13 32t32 13q18 0 30 -12.5t12 -32.5q0 -19 -12 -31.5
t-30 -12.5zM256 566h-1q-18 0 -31 12.5t-13 31.5t13 32t32 13q18 0 30 -12.5t12 -32.5q0 -19 -12 -31.5t-30 -12.5z" />
    <glyph glyph-name="Amacron" unicode="&#x100;" horiz-adv-x="435" 
d="M291 202h-150l-44 -202h-75l154 674h85l150 -674h-76zM152 264h128l-35 171q-10 49 -27 154h-3q-15 -94 -28 -155zM112 788h213v-53h-213v53z" />
    <glyph glyph-name="amacron" unicode="&#x101;" horiz-adv-x="364" 
d="M309 320v-210q0 -79 5 -110h-69l-5 51h-3q-33 -59 -96 -59q-50 0 -82.5 38t-32.5 100q0 86 58.5 130.5t147.5 45.5v15q0 53 -17 81.5t-60 28.5q-44 0 -80 -25l-17 54q45 32 113 32q138 0 138 -172zM234 153v98q-133 0 -133 -113q0 -44 17.5 -65t41.5 -21q26 0 45 19
t26 54q3 13 3 28zM84 631h197v-51h-197v51z" />
    <glyph glyph-name="Abreve" unicode="&#x102;" horiz-adv-x="435" 
d="M291 202h-150l-44 -202h-75l154 674h85l150 -674h-76zM152 264h128l-35 171q-10 49 -27 154h-3q-15 -94 -28 -155zM112 807h45q8 -43 61 -43t62 43h45q0 -43 -29 -69.5t-77 -26.5q-50 0 -78.5 25.5t-28.5 70.5z" />
    <glyph glyph-name="abreve" unicode="&#x103;" horiz-adv-x="364" 
d="M309 320v-210q0 -79 5 -110h-69l-5 51h-3q-33 -59 -96 -59q-50 0 -82.5 38t-32.5 100q0 86 58.5 130.5t147.5 45.5v15q0 53 -17 81.5t-60 28.5q-44 0 -80 -25l-17 54q45 32 113 32q138 0 138 -172zM234 153v98q-133 0 -133 -113q0 -44 17.5 -65t41.5 -21q26 0 45 19
t26 54q3 13 3 28zM76 669h44q1 -28 18 -44.5t43 -16.5q29 0 46 17t18 44h43q2 -49 -27.5 -81t-79.5 -32t-78.5 32t-26.5 81z" />
    <glyph glyph-name="Aogonek" unicode="&#x104;" horiz-adv-x="435" 
d="M261 674l149 -674h-23q-44 -54 -44 -97q0 -22 12.5 -34t28.5 -12q24 0 43 9l11 -43q-29 -22 -72 -22q-39 0 -61.5 22t-22.5 61q0 51 51 122l-43 196h-149l-45 -202h-75l155 674h85zM151 264h128l-35 171q-10 49 -27 154h-3q-13 -86 -27 -155z" />
    <glyph glyph-name="aogonek" unicode="&#x105;" horiz-adv-x="364" 
d="M309 320v-211q0 -79 9 -109h-18q-41 -56 -41 -103q0 -22 12.5 -34t28.5 -12q27 0 43 8l11 -43q-30 -21 -72 -21q-39 0 -61.5 22t-22.5 61q0 49 47 122l-5 51h-3q-33 -59 -96 -59q-50 0 -82.5 38t-32.5 100q0 86 58.5 130.5t147.5 45.5v15q0 53 -17 81.5t-60 28.5
q-44 0 -80 -25l-17 54q45 32 113 32q138 0 138 -172zM234 152v99q-133 0 -133 -113q0 -44 17.5 -65t41.5 -21q26 0 45 19t26 54q3 13 3 27z" />
    <glyph glyph-name="Cacute" unicode="&#x106;" horiz-adv-x="373" 
d="M342 76l13 -64q-34 -18 -97 -18q-103 0 -164.5 84t-61.5 250q0 95 22 166.5t58 110.5t76 57t83 18q58 0 83 -17l-17 -65q-32 14 -67 14q-63 0 -110 -67t-47 -209q0 -144 44.5 -209t114.5 -65q38 0 70 14zM289 818h91l-124 -108h-61z" />
    <glyph glyph-name="cacute" unicode="&#x107;" horiz-adv-x="302" 
d="M279 71l11 -59q-31 -18 -80 -18q-81 0 -129 63.5t-48 181.5q0 108 51.5 180t139.5 72q43 0 68 -16l-15 -62q-26 13 -55 13q-55 0 -83.5 -54.5t-28.5 -132.5q0 -85 30.5 -133t83.5 -48q30 0 55 13zM235 682h79l-105 -135h-51z" />
    <glyph glyph-name="Ccircumflex" unicode="&#x108;" horiz-adv-x="373" 
d="M342 76l13 -64q-34 -18 -97 -18q-103 0 -164.5 84t-61.5 250q0 95 22 166.5t58 110.5t76 57t83 18q58 0 83 -17l-17 -65q-32 14 -67 14q-63 0 -110 -67t-47 -209q0 -144 44.5 -209t114.5 -65q38 0 70 14zM203 808h66l87 -98h-67l-52 55h-2l-52 -55h-66z" />
    <glyph glyph-name="ccircumflex" unicode="&#x109;" horiz-adv-x="302" 
d="M279 71l11 -59q-31 -18 -80 -18q-81 0 -129 63.5t-48 181.5q0 108 51.5 180t139.5 72q43 0 68 -16l-15 -62q-26 13 -55 13q-55 0 -83.5 -54.5t-28.5 -132.5q0 -85 30.5 -133t83.5 -48q30 0 55 13zM167 682h52l79 -135h-58l-46 87h-2l-46 -87h-58z" />
    <glyph glyph-name="Cdotaccent" unicode="&#x10a;" horiz-adv-x="373" 
d="M342 76l13 -64q-34 -18 -97 -18q-103 0 -164.5 84t-61.5 250q0 95 22 166.5t58 110.5t76 57t83 18q58 0 83 -17l-17 -65q-32 14 -67 14q-63 0 -110 -67t-47 -209q0 -144 44.5 -209t114.5 -65q38 0 70 14zM243 720h-1q-18 0 -31 13t-13 31q0 19 13 32t32 13t31.5 -13
t12.5 -32q0 -18 -12.5 -31t-31.5 -13z" />
    <glyph glyph-name="cdotaccent" unicode="&#x10b;" horiz-adv-x="302" 
d="M279 71l11 -59q-31 -18 -80 -18q-81 0 -129 63.5t-48 181.5q0 108 51.5 180t139.5 72q43 0 68 -16l-15 -62q-26 13 -55 13q-55 0 -83.5 -54.5t-28.5 -132.5q0 -85 30.5 -133t83.5 -48q30 0 55 13zM192 566h-1q-18 0 -31 12.5t-13 31.5t13 32t32 13q18 0 30 -12.5
t12 -32.5q0 -19 -12 -31.5t-30 -12.5z" />
    <glyph glyph-name="Ccaron" unicode="&#x10c;" horiz-adv-x="373" 
d="M342 76l13 -64q-34 -18 -97 -18q-103 0 -164.5 84t-61.5 250q0 95 22 166.5t58 110.5t76 57t83 18q58 0 83 -17l-17 -65q-32 14 -67 14q-63 0 -110 -67t-47 -209q0 -144 44.5 -209t114.5 -65q38 0 70 14zM277 710h-66l-87 98h67l52 -58h2l52 58h66z" />
    <glyph glyph-name="ccaron" unicode="&#x10d;" horiz-adv-x="302" 
d="M279 71l11 -59q-31 -18 -80 -18q-81 0 -129 63.5t-48 181.5q0 108 51.5 180t139.5 72q43 0 68 -16l-15 -62q-26 13 -55 13q-55 0 -83.5 -54.5t-28.5 -132.5q0 -85 30.5 -133t83.5 -48q30 0 55 13zM217 547h-53l-79 135h58l46 -87h2l47 87h58z" />
    <glyph glyph-name="Dcaron" unicode="&#x10e;" horiz-adv-x="445" 
d="M60 3v661q42 13 104 13q101 0 158 -51q91 -79 91 -273q0 -196 -81 -285q-65 -72 -186 -72q-55 0 -86 7zM137 610v-548q11 -2 29 -2q34 0 62 13.5t53 45t38.5 90.5t13.5 142q0 263 -160 263q-23 0 -36 -4zM229 710h-66l-87 98h67l52 -58h2l52 58h66z" />
    <glyph glyph-name="dcaron" unicode="&#x10f;" horiz-adv-x="409" 
d="M269 692h77v-576q0 -4 4 -116h-66l-5 60h-4q-13 -28 -39 -48t-62 -20q-63 0 -102 65.5t-39 182.5q0 122 42.5 187t103.5 65q62 0 88 -57h2v257zM269 171v129q0 21 -1 32q-3 38 -24 66t-48 28q-45 0 -65.5 -52.5t-20.5 -133.5t21 -132.5t61 -51.5q54 0 74 83q3 9 3 32z
M422 505l-34 23q29 42 29 89q0 42 -32 68l57 12q33 -23 33 -72q0 -57 -53 -120z" />
    <glyph glyph-name="Dcroat" unicode="&#x110;" horiz-adv-x="453" 
d="M0 323v58h69v283q42 13 104 13q100 0 157 -51q91 -79 91 -274q0 -197 -81 -286q-63 -72 -185 -72q-53 0 -86 6v323h-69zM247 381v-58h-101v-263q11 -2 29 -2q73 0 119.5 66.5t46.5 227.5q0 262 -159 262q-16 0 -36 -4v-229h101z" />
    <glyph glyph-name="dcroat" unicode="&#x111;" horiz-adv-x="399" 
d="M404 544h-58v-428q0 -4 4 -116h-66l-5 60h-4q-13 -28 -39 -48t-62 -20q-63 0 -102 65.5t-39 182.5q0 122 42.5 187t103.5 65q62 0 88 -57h2v109h-131v53h131v95h77v-95h58v-53zM269 171v129q0 21 -1 32q-3 38 -24 66t-48 28q-45 0 -65.5 -52.5t-20.5 -133.5t21 -132.5
t61 -51.5q54 0 74 83q3 9 3 32z" />
    <glyph glyph-name="Emacron" unicode="&#x112;" horiz-adv-x="354" 
d="M306 385v-65h-169v-253h192v-67h-269v674h257v-67h-180v-222h169zM86 788h213v-53h-213v53z" />
    <glyph glyph-name="emacron" unicode="&#x113;" horiz-adv-x="363" 
d="M332 235h-224q1 -180 114 -180q46 0 80 18l13 -56q-41 -23 -107 -23q-85 0 -130 64.5t-45 178.5q0 117 45 186t118 69q69 0 103.5 -61.5t34.5 -151.5q0 -20 -2 -44zM109 292h151q1 68 -20.5 104t-51.5 36q-35 0 -55.5 -42.5t-23.5 -97.5zM90 631h197v-51h-197v51z" />
    <glyph glyph-name="Ebreve" unicode="&#x114;" horiz-adv-x="354" 
d="M306 385v-65h-169v-253h192v-67h-269v674h257v-67h-180v-222h169zM84 809h45q8 -43 61 -43t62 43h45q0 -43 -29 -69.5t-77 -26.5q-50 0 -78.5 25.5t-28.5 70.5z" />
    <glyph glyph-name="ebreve" unicode="&#x115;" horiz-adv-x="363" 
d="M332 235h-224q1 -180 114 -180q46 0 80 18l13 -56q-41 -23 -107 -23q-85 0 -130 64.5t-45 178.5q0 117 45 186t118 69q69 0 103.5 -61.5t34.5 -151.5q0 -20 -2 -44zM109 292h151q1 68 -20.5 104t-51.5 36q-35 0 -55.5 -42.5t-23.5 -97.5zM83 669h44q1 -28 18 -44.5
t43 -16.5q29 0 46 17t18 44h43q2 -49 -27.5 -81t-79.5 -32t-78.5 32t-26.5 81z" />
    <glyph glyph-name="Edotaccent" unicode="&#x116;" horiz-adv-x="354" 
d="M306 385v-65h-169v-253h192v-67h-269v674h257v-67h-180v-222h169zM195 727h-1q-18 0 -31 13t-13 31q0 19 13 32t32 13t31.5 -13t12.5 -32q0 -18 -12.5 -31t-31.5 -13z" />
    <glyph glyph-name="edotaccent" unicode="&#x117;" horiz-adv-x="363" 
d="M332 235h-224q1 -180 114 -180q46 0 80 18l13 -56q-41 -23 -107 -23q-85 0 -130 64.5t-45 178.5q0 117 45 186t118 69q69 0 103.5 -61.5t34.5 -151.5q0 -20 -2 -44zM109 292h151q1 68 -20.5 104t-51.5 36q-35 0 -55.5 -42.5t-23.5 -97.5zM192 566h-1q-18 0 -31 12.5
t-13 31.5t13 32t32 13q18 0 30 -12.5t12 -32.5q0 -19 -12 -31.5t-30 -12.5z" />
    <glyph glyph-name="Eogonek" unicode="&#x118;" horiz-adv-x="354" 
d="M323 -137l11 -42q-29 -22 -75 -22q-38 0 -59.5 20.5t-21.5 56.5t24 69t58 55h-200v674h257v-67h-180v-222h168v-65h-168v-253h192v-67q-3 -1 -11 -3q-78 -53 -78 -102q0 -20 12 -30t28 -10q24 0 43 8z" />
    <glyph glyph-name="eogonek" unicode="&#x119;" horiz-adv-x="363" 
d="M277 -132l13 -42q-31 -25 -75 -25q-37 0 -59.5 20.5t-22.5 54.5q0 33 23 65.5t52 51.5v1h-3q-83 1 -127.5 66t-44.5 177q0 117 44.5 186t117.5 69q70 0 104.5 -61.5t34.5 -151.5q0 -24 -2 -44h-224q1 -180 114 -180q46 0 80 18l13 -56q-21 -9 -26 -11q-38 -19 -66.5 -51
t-28.5 -61q0 -20 10.5 -29.5t26.5 -9.5q23 0 46 13zM109 292h151q1 68 -20.5 104t-51.5 36q-36 0 -56 -42t-23 -98z" />
    <glyph glyph-name="Ecaron" unicode="&#x11a;" horiz-adv-x="354" 
d="M306 385v-65h-169v-253h192v-67h-269v674h257v-67h-180v-222h169zM223 710h-66l-87 98h67l52 -58h2l52 58h66z" />
    <glyph glyph-name="ecaron" unicode="&#x11b;" horiz-adv-x="363" 
d="M332 235h-224q1 -180 114 -180q46 0 80 18l13 -56q-41 -23 -107 -23q-85 0 -130 64.5t-45 178.5q0 117 45 186t118 69q69 0 103.5 -61.5t34.5 -151.5q0 -20 -2 -44zM109 292h151q1 68 -20.5 104t-51.5 36q-35 0 -55.5 -42.5t-23.5 -97.5zM214 547h-53l-79 135h58l46 -87
h2l47 87h58z" />
    <glyph glyph-name="Gcircumflex" unicode="&#x11c;" horiz-adv-x="436" 
d="M391 352v-335q-54 -23 -119 -23q-99 0 -159 65q-82 88 -81 269t76 266.5t178 85.5q60 0 95 -19l-17 -66q-32 16 -77 16q-73 0 -124 -66t-51 -210t45.5 -209.5t114.5 -65.5q35 0 47 8v220h-87v64h159zM223 808h66l87 -98h-67l-52 55h-2l-52 -55h-66z" />
    <glyph glyph-name="gcircumflex" unicode="&#x11d;" horiz-adv-x="399" 
d="M346 333v-271q0 -91 -11.5 -136.5t-36.5 -74.5q-48 -51 -129 -51q-63 0 -106 24l18 60q40 -21 89 -21q99 0 99 148v49h-2q-25 -59 -92 -59q-64 0 -103 66t-39 173q0 124 45.5 188t106.5 64q57 0 90 -62h2l4 54h69q-4 -132 -4 -151zM269 177v140q0 21 -4 36q-18 73 -70 73
q-40 0 -62.5 -50t-22.5 -132q0 -88 24 -134t61 -46q51 0 69 69q5 15 5 44zM172 682h52l79 -135h-58l-46 87h-2l-46 -87h-58z" />
    <glyph glyph-name="Gbreve" unicode="&#x11e;" horiz-adv-x="436" 
d="M391 352v-335q-54 -23 -119 -23q-99 0 -159 65q-82 88 -81 269t76 266.5t178 85.5q60 0 95 -19l-17 -66q-32 16 -77 16q-73 0 -124 -66t-51 -210t45.5 -209.5t114.5 -65.5q35 0 47 8v220h-87v64h159zM147 807h45q8 -43 61 -43t62 43h45q0 -43 -29 -69.5t-77 -26.5
q-50 0 -78.5 25.5t-28.5 70.5z" />
    <glyph glyph-name="gbreve" unicode="&#x11f;" horiz-adv-x="399" 
d="M346 333v-271q0 -91 -11.5 -136.5t-36.5 -74.5q-48 -51 -129 -51q-63 0 -106 24l18 60q40 -21 89 -21q99 0 99 148v49h-2q-25 -59 -92 -59q-64 0 -103 66t-39 173q0 124 45.5 188t106.5 64q57 0 90 -62h2l4 54h69q-4 -132 -4 -151zM269 177v140q0 21 -4 36q-18 73 -70 73
q-40 0 -62.5 -50t-22.5 -132q0 -88 24 -134t61 -46q51 0 69 69q5 15 5 44zM94 669h44q1 -28 18 -44.5t43 -16.5q29 0 46 17t18 44h43q2 -49 -27.5 -81t-79.5 -32t-78.5 32t-26.5 81z" />
    <glyph glyph-name="Gdotaccent" unicode="&#x120;" horiz-adv-x="436" 
d="M391 352v-335q-54 -23 -119 -23q-99 0 -159 65q-82 88 -81 269t76 266.5t178 85.5q60 0 95 -19l-17 -66q-32 16 -77 16q-73 0 -124 -66t-51 -210t45.5 -209.5t114.5 -65.5q35 0 47 8v220h-87v64h159zM256 720h-1q-18 0 -31 13t-13 31q0 19 13 32t32 13t31.5 -13t12.5 -32
q0 -18 -12.5 -31t-31.5 -13z" />
    <glyph glyph-name="gdotaccent" unicode="&#x121;" horiz-adv-x="399" 
d="M346 333v-271q0 -91 -11.5 -136.5t-36.5 -74.5q-48 -51 -129 -51q-63 0 -106 24l18 60q40 -21 89 -21q99 0 99 148v49h-2q-25 -59 -92 -59q-64 0 -103 66t-39 173q0 124 45.5 188t106.5 64q57 0 90 -62h2l4 54h69q-4 -132 -4 -151zM269 177v140q0 21 -4 36q-18 73 -70 73
q-40 0 -62.5 -50t-22.5 -132q0 -88 24 -134t61 -46q51 0 69 69q5 15 5 44zM203 566h-1q-18 0 -31 12.5t-13 31.5t13 32t32 13q18 0 30 -12.5t12 -32.5q0 -19 -12 -31.5t-30 -12.5z" />
    <glyph glyph-name="Gcommaaccent" unicode="&#x122;" horiz-adv-x="436" 
d="M391 352v-335q-54 -23 -119 -23q-99 0 -159 65q-82 88 -81 269t76 266.5t178 85.5q60 0 95 -19l-17 -66q-32 16 -77 16q-73 0 -124 -66t-51 -210t45.5 -209.5t114.5 -65.5q35 0 47 8v220h-87v64h159zM205 -214l-16 37q26 7 45 23t19 39q0 35 -34 61l62 12q35 -25 35 -70
q0 -44 -31.5 -69t-79.5 -33z" />
    <glyph glyph-name="gcommaaccent" unicode="&#x123;" horiz-adv-x="399" 
d="M346 333v-271q0 -91 -11.5 -136.5t-36.5 -74.5q-48 -51 -129 -51q-63 0 -106 24l18 60q40 -21 89 -21q99 0 99 148v49h-2q-25 -59 -92 -59q-64 0 -103 66t-39 173q0 124 45.5 188t106.5 64q57 0 90 -62h2l4 54h69q-4 -132 -4 -151zM269 177v140q0 21 -4 36q-18 73 -70 73
q-40 0 -62.5 -50t-22.5 -132q0 -88 24 -134t61 -46q51 0 69 69q5 15 5 44zM258 701l17 -35q-67 -15 -67 -64q0 -35 35 -61l-60 -12q-35 27 -35 70q0 44 31 69t79 33z" />
    <glyph glyph-name="Hcircumflex" unicode="&#x124;" horiz-adv-x="463" 
d="M60 674h77v-289h189v289h77v-674h-77v315h-189v-315h-77v674zM202 808h66l87 -98h-67l-52 55h-2l-52 -55h-66z" />
    <glyph glyph-name="hcircumflex" unicode="&#x125;" horiz-adv-x="405" 
d="M54 0v692h77v-260h2q15 25 41 43q26 17 64 17q50 0 81.5 -42t31.5 -129v-321h-77v312q0 115 -65 115q-57 0 -75 -77q-3 -16 -3 -36v-314h-77zM61 818h66l87 -98h-67l-52 55h-2l-52 -55h-66z" />
    <glyph glyph-name="Hbar" unicode="&#x126;" horiz-adv-x="463" 
d="M450 483h-47v-483h-77v305h-189v-305h-77v483h-47v55h47v136h77v-136h189v136h77v-136h47v-55zM326 375v108h-189v-108h189z" />
    <glyph glyph-name="hbar" unicode="&#x127;" horiz-adv-x="405" 
d="M351 0h-77v312q0 115 -65 115q-57 0 -75 -77q-3 -16 -3 -36v-314h-77v544h-60v53h60v95h77v-95h133v-53h-133v-112h2q15 25 41 43q26 17 64 17q50 0 81.5 -42t31.5 -129v-321z" />
    <glyph glyph-name="Itilde" unicode="&#x128;" horiz-adv-x="199" 
d="M60 674h77v-674h-77v674zM35 718h-41q-1 43 15 68.5t44 25.5q19 0 47 -17q30 -18 40 -18q12 0 18 8t8 29h40q2 -90 -62 -90q-24 0 -49 17q-26 16 -36 16q-19 0 -24 -39z" />
    <glyph glyph-name="itilde" unicode="&#x129;" horiz-adv-x="184" 
d="M131 0h-77v484h77v-484zM26 561h-43q-1 41 15.5 67.5t46.5 26.5q21 0 49 -18q32 -17 40 -17q24 0 25 36h41q0 -89 -63 -89q-19 0 -49 17t-38 17q-21 0 -24 -40z" />
    <glyph glyph-name="Imacron" unicode="&#x12a;" horiz-adv-x="199" 
d="M60 674h77v-674h-77v674zM-6 788h213v-53h-213v53z" />
    <glyph glyph-name="imacron" unicode="&#x12b;" horiz-adv-x="184" 
d="M131 0h-77v484h77v-484zM-6 631h197v-51h-197v51z" />
    <glyph glyph-name="Ibreve" unicode="&#x12c;" horiz-adv-x="199" 
d="M60 674h77v-674h-77v674zM-9 809h45q8 -43 61 -43t62 43h45q0 -43 -29 -69.5t-77 -26.5q-50 0 -78.5 25.5t-28.5 70.5z" />
    <glyph glyph-name="ibreve" unicode="&#x12d;" horiz-adv-x="184" 
d="M131 0h-77v484h77v-484zM-14 669h44q1 -28 18 -44.5t43 -16.5q29 0 46 17t18 44h43q2 -49 -27.5 -81t-79.5 -32t-78.5 32t-26.5 81z" />
    <glyph glyph-name="Iogonek" unicode="&#x12e;" horiz-adv-x="199" 
d="M137 674v-674h-23q-40 -55 -40 -102q0 -22 12 -34.5t29 -12.5q27 0 43 8l11 -43q-30 -21 -73 -21q-38 0 -60.5 22t-22.5 60q0 50 47 123v674h77z" />
    <glyph glyph-name="iogonek" unicode="&#x12f;" horiz-adv-x="184" 
d="M91 559h-1q-19 0 -31.5 14t-12.5 36t13 36t32 14q21 0 33.5 -13.5t12.5 -36.5t-12.5 -36.5t-33.5 -13.5zM131 484v-484h-23q-40 -55 -40 -103q0 -22 12.5 -34t28.5 -12q27 0 43 8l11 -43q-30 -21 -73 -21q-39 0 -61.5 22t-22.5 61q0 51 48 122v484h77z" />
    <glyph glyph-name="Idotaccent" unicode="&#x130;" horiz-adv-x="199" 
d="M60 674h77v-674h-77v674zM99 727h-1q-18 0 -31 13t-13 31q0 19 13 32t32 13t31.5 -13t12.5 -32q0 -18 -12.5 -31t-31.5 -13z" />
    <glyph glyph-name="dotlessi" unicode="&#x131;" horiz-adv-x="184" 
d="M131 0h-77v484h77v-484z" />
    <glyph glyph-name="IJ" unicode="&#x132;" horiz-adv-x="464" 
d="M60 674h77v-674h-77v674zM333 189v485h77v-484q0 -108 -40.5 -153t-117.5 -45q-32 0 -50 7l7 65q13 -4 37 -4q44 0 65.5 27t21.5 102z" />
    <glyph glyph-name="ij" unicode="&#x133;" horiz-adv-x="373" 
d="M131 0h-77v484h77v-484zM91 559h-1q-19 0 -31.5 14t-12.5 36t13 36t32 14q21 0 33.5 -13.5t12.5 -36.5t-12.5 -36.5t-33.5 -13.5zM166 -200l-10 61q47 11 65 37q23 35 23 154v432h77v-453q0 -75 -11.5 -116t-37.5 -70q-20 -20 -50.5 -32t-55.5 -13zM283 559h-1
q-20 0 -32.5 14t-12.5 36t13 36t33 14t32.5 -13.5t12.5 -36.5t-12.5 -36.5t-32.5 -13.5z" />
    <glyph glyph-name="Jcircumflex" unicode="&#x134;" horiz-adv-x="265" 
d="M134 189v485h77v-484q0 -108 -40.5 -153t-117.5 -45q-32 0 -50 7l7 65q13 -4 37 -4q44 0 65.5 27t21.5 102zM137 808h66l87 -98h-67l-52 55h-2l-52 -55h-66z" />
    <glyph glyph-name="jcircumflex" unicode="&#x135;" horiz-adv-x="188" 
d="M-18 -200l-10 61q47 11 65 37q23 35 23 154v432h77v-453q0 -75 -11.5 -116t-37.5 -70q-20 -20 -50.5 -32t-55.5 -13zM74 674h43l79 -135h-54l-45 85h-2l-46 -85h-52z" />
    <glyph glyph-name="Kcommaaccent" unicode="&#x136;" horiz-adv-x="404" 
d="M60 0v674h77v-320h2q23 42 42 81l125 239h86l-165 -288l169 -386h-83l-138 325l-38 -65v-260h-77zM158 -207l-16 37q26 7 45 23t19 39q0 35 -34 61l62 12q35 -25 35 -70q0 -44 -31.5 -69t-79.5 -33z" />
    <glyph glyph-name="kcommaaccent" unicode="&#x137;" horiz-adv-x="354" 
d="M130 692v-433h2q23 49 26 54l96 171h83l-128 -204l140 -280h-86l-105 228l-28 -45v-183h-77v692h77zM129 -214l-16 37q26 7 45 23t19 39q0 35 -34 61l62 12q35 -25 35 -70q0 -44 -31.5 -69t-79.5 -33z" />
    <glyph glyph-name="kgreenlandic" unicode="&#x138;" horiz-adv-x="354" 
d="M130 484v-225h2q23 49 26 54l96 171h83l-128 -204l140 -280h-86l-105 228l-28 -45v-183h-77v484h77z" />
    <glyph glyph-name="Lacute" unicode="&#x139;" horiz-adv-x="344" 
d="M60 0v674h77v-609h189v-65h-266zM160 818h91l-124 -108h-61z" />
    <glyph glyph-name="lacute" unicode="&#x13a;" horiz-adv-x="191" 
d="M54 0v692h77v-692h-77zM143 828h91l-124 -108h-61z" />
    <glyph glyph-name="Lcommaaccent" unicode="&#x13b;" horiz-adv-x="344" 
d="M60 0v674h77v-609h189v-65h-266zM125 -214l-16 37q26 7 45 23t19 39q0 35 -34 61l62 12q35 -25 35 -70q0 -44 -31.5 -69t-79.5 -33z" />
    <glyph glyph-name="lcommaaccent" unicode="&#x13c;" horiz-adv-x="191" 
d="M54 0v692h77v-692h-77zM41 -214l-16 37q26 7 45 23t19 39q0 35 -34 61l62 12q35 -25 35 -70q0 -44 -31.5 -69t-79.5 -33z" />
    <glyph glyph-name="Lcaron" unicode="&#x13d;" horiz-adv-x="344" 
d="M60 0v674h77v-609h189v-65h-266zM200 503l-16 37q26 7 45 23t19 39q0 35 -34 61l62 12q35 -25 35 -70q0 -44 -31.5 -69t-79.5 -33z" />
    <glyph glyph-name="lcaron" unicode="&#x13e;" horiz-adv-x="194" 
d="M54 0v692h77v-692h-77zM208 505l-34 22q29 45 29 90q0 42 -32 68l57 12q33 -23 33 -72q0 -57 -53 -120z" />
    <glyph glyph-name="Ldot" unicode="&#x13f;" horiz-adv-x="344" 
d="M60 0v674h77v-609h189v-65h-266zM241 317h-1q-18 0 -31 13t-13 31q0 19 13 32t32 13t31.5 -13t12.5 -32q0 -18 -12.5 -31t-31.5 -13z" />
    <glyph glyph-name="ldot" unicode="&#x140;" horiz-adv-x="235" 
d="M54 0v692h77v-692h-77zM212 350h-1q-17 0 -29 12.5t-12 31.5t12 31.5t30 12.5q17 0 28 -12.5t11 -31.5t-11 -31.5t-28 -12.5z" />
    <glyph glyph-name="Lslash" unicode="&#x141;" horiz-adv-x="351" 
d="M333 0h-266v256l-68 -65v70l68 65v348h77v-286l106 102v-71l-106 -101v-253h189v-65z" />
    <glyph glyph-name="lslash" unicode="&#x142;" horiz-adv-x="198" 
d="M138 0h-77v296l-62 -63v68l62 64v327h77v-267l64 66v-70l-64 -66v-355z" />
    <glyph glyph-name="Nacute" unicode="&#x143;" horiz-adv-x="465" 
d="M130 0h-69v674h72l124 -316q67 -175 86 -235h2q-9 159 -9 310v241h69v-674h-72l-128 324q-51 124 -81 229h-2q8 -120 8 -320v-233zM291 818h91l-124 -108h-61z" />
    <glyph glyph-name="nacute" unicode="&#x144;" horiz-adv-x="405" 
d="M54 0v359q0 33 -2 75t-2 50h67l4 -58h2q36 66 111 66q53 0 85 -41t32 -126v-325h-77v312q0 115 -67 115q-25 0 -45.5 -20.5t-26.5 -58.5q-4 -15 -4 -43v-305h-77zM248 682h79l-105 -135h-51z" />
    <glyph glyph-name="Ncommaaccent" unicode="&#x145;" horiz-adv-x="465" 
d="M130 0h-69v674h72l124 -316q67 -175 86 -235h2q-9 159 -9 310v241h69v-674h-72l-128 324q-51 124 -81 229h-2q8 -120 8 -320v-233zM176 -211l-16 37q26 7 45 23t19 39q0 35 -34 61l62 12q35 -25 35 -70q0 -44 -31.5 -69t-79.5 -33z" />
    <glyph glyph-name="ncommaaccent" unicode="&#x146;" horiz-adv-x="405" 
d="M54 0v359q0 33 -2 75t-2 50h67l4 -58h2q36 66 111 66q53 0 85 -41t32 -126v-325h-77v312q0 115 -67 115q-25 0 -45.5 -20.5t-26.5 -58.5q-4 -15 -4 -43v-305h-77zM158 -208l-16 37q26 7 45 23t19 39q0 35 -34 61l62 12q35 -25 35 -70q0 -44 -31.5 -69t-79.5 -33z" />
    <glyph glyph-name="Ncaron" unicode="&#x147;" horiz-adv-x="465" 
d="M130 0h-69v674h72l124 -316q67 -175 86 -235h2q-9 159 -9 310v241h69v-674h-72l-128 324q-51 124 -81 229h-2q8 -120 8 -320v-233zM265 710h-66l-87 98h67l52 -58h2l52 58h66z" />
    <glyph glyph-name="ncaron" unicode="&#x148;" horiz-adv-x="405" 
d="M54 0v359q0 33 -2 75t-2 50h67l4 -58h2q36 66 111 66q53 0 85 -41t32 -126v-325h-77v312q0 115 -67 115q-25 0 -45.5 -20.5t-26.5 -58.5q-4 -15 -4 -43v-305h-77zM230 547h-53l-79 135h58l46 -87h2l47 87h58z" />
    <glyph glyph-name="napostrophe" unicode="&#x149;" horiz-adv-x="405" 
d="M54 0v359q0 33 -2 75t-2 50h67l4 -58h2q36 66 111 66q53 0 85 -41t32 -126v-325h-77v312q0 115 -67 115q-25 0 -45.5 -20.5t-26.5 -58.5q-4 -15 -4 -43v-305h-77zM53 528l-37 19q29 40 29 81q0 37 -32 60l60 11q33 -21 33 -65q0 -53 -53 -106z" />
    <glyph glyph-name="Eng" unicode="&#x14a;" horiz-adv-x="465" 
d="M130 0h-69v674h72l124 -316q67 -175 86 -235h2q-9 159 -9 310v241h69v-654q0 -86 -32.5 -137.5t-107.5 -68.5l-19 59q89 26 90 121l-131 330q-51 124 -81 229h-2q8 -120 8 -320v-233z" />
    <glyph glyph-name="eng" unicode="&#x14b;" horiz-adv-x="405" 
d="M54 0v359q0 33 -2 75t-2 50h67l4 -58h2q36 66 111 66q53 0 85 -41t32 -126v-294q0 -178 -140 -204l-16 62q39 10 59 41t20 97v285q0 115 -67 115q-25 0 -45.5 -20.5t-26.5 -58.5q-4 -15 -4 -43v-305h-77z" />
    <glyph glyph-name="Omacron" unicode="&#x14c;" horiz-adv-x="446" 
d="M220 -8h-1q-86 0 -136.5 89.5t-50.5 256.5q0 164 54 254t144 90q86 0 135 -89.5t49 -250.5q0 -179 -53.5 -264.5t-140.5 -85.5zM224 60h1q31 0 53 24.5t34 66.5t17 88t5 100q0 51 -5 96.5t-17 87.5t-34.5 66.5t-53.5 24.5q-41 0 -67.5 -44t-35.5 -102.5t-9 -129.5
q0 -53 5.5 -99.5t17.5 -88t35 -66t54 -24.5zM118 788h213v-53h-213v53z" />
    <glyph glyph-name="omacron" unicode="&#x14d;" horiz-adv-x="383" 
d="M191 -8h-1q-69 0 -113 63.5t-44 185.5q0 125 47 188t115 63q69 0 112.5 -63.5t43.5 -185.5q0 -129 -47.5 -190t-112.5 -61zM193 53h1q31 0 50 33t24.5 72t5.5 84t-5.5 83.5t-25 72t-51.5 33.5q-24 0 -41.5 -18.5t-25.5 -49t-11.5 -60t-3.5 -61.5q0 -34 3.5 -64t12 -60
t25.5 -47.5t42 -17.5zM94 631h197v-51h-197v51z" />
    <glyph glyph-name="Obreve" unicode="&#x14e;" horiz-adv-x="446" 
d="M220 -8h-1q-86 0 -136.5 89.5t-50.5 256.5q0 164 54 254t144 90q86 0 135 -89.5t49 -250.5q0 -179 -53.5 -264.5t-140.5 -85.5zM224 60h1q31 0 53 24.5t34 66.5t17 88t5 100q0 51 -5 96.5t-17 87.5t-34.5 66.5t-53.5 24.5q-41 0 -67.5 -44t-35.5 -102.5t-9 -129.5
q0 -53 5.5 -99.5t17.5 -88t35 -66t54 -24.5zM115 809h45q8 -43 61 -43t62 43h45q0 -43 -29 -69.5t-77 -26.5q-50 0 -78.5 25.5t-28.5 70.5z" />
    <glyph glyph-name="obreve" unicode="&#x14f;" horiz-adv-x="383" 
d="M191 -8h-1q-69 0 -113 63.5t-44 185.5q0 125 47 188t115 63q69 0 112.5 -63.5t43.5 -185.5q0 -129 -47.5 -190t-112.5 -61zM193 53h1q31 0 50 33t24.5 72t5.5 84t-5.5 83.5t-25 72t-51.5 33.5q-24 0 -41.5 -18.5t-25.5 -49t-11.5 -60t-3.5 -61.5q0 -34 3.5 -64t12 -60
t25.5 -47.5t42 -17.5zM85 669h44q1 -28 18 -44.5t43 -16.5q29 0 46 17t18 44h43q2 -49 -27.5 -81t-79.5 -32t-78.5 32t-26.5 81z" />
    <glyph glyph-name="Ohungarumlaut" unicode="&#x150;" horiz-adv-x="446" 
d="M220 -8h-1q-86 0 -136.5 89.5t-50.5 256.5q0 164 54 254t144 90q86 0 135 -89.5t49 -250.5q0 -179 -53.5 -264.5t-140.5 -85.5zM224 60h1q31 0 53 24.5t34 66.5t17 88t5 100q0 51 -5 96.5t-17 87.5t-34.5 66.5t-53.5 24.5q-41 0 -67.5 -44t-35.5 -102.5t-9 -129.5
q0 -53 5.5 -99.5t17.5 -88t35 -66t54 -24.5zM203 818h81l-99 -99h-54zM330 818h81l-99 -99h-54z" />
    <glyph glyph-name="ohungarumlaut" unicode="&#x151;" horiz-adv-x="383" 
d="M191 -8h-1q-69 0 -113 63.5t-44 185.5q0 125 47 188t115 63q69 0 112.5 -63.5t43.5 -185.5q0 -129 -47.5 -190t-112.5 -61zM193 53h1q31 0 50 33t24.5 72t5.5 84t-5.5 83.5t-25 72t-51.5 33.5q-24 0 -41.5 -18.5t-25.5 -49t-11.5 -60t-3.5 -61.5q0 -34 3.5 -64t12 -60
t25.5 -47.5t42 -17.5zM180 682h69l-104 -135h-44zM303 682h70l-104 -135h-44z" />
    <glyph glyph-name="OE" unicode="&#x152;" horiz-adv-x="610" 
d="M585 67v-67h-247q-18 -1 -37 -5q-21 -3 -38 -3q-63 0 -109.5 27.5t-72 76.5t-37.5 108t-12 129q0 170 67 259.5t173 89.5q20 0 38 -3l35 -5h228v-67h-180v-222h169v-65h-169v-253h192zM316 68v535q-19 11 -54 11q-59 0 -104.5 -67t-45.5 -209q-1 -148 43 -213t112 -65
q34 0 49 8z" />
    <glyph glyph-name="oe" unicode="&#x153;" horiz-adv-x="609" 
d="M580 237h-225q1 -103 31 -143.5t82 -40.5q36 0 84 19l13 -54q-42 -26 -113 -26q-44 0 -81 26t-53 75h-2q-15 -50 -49.5 -75.5t-75.5 -25.5q-70 0 -114 64t-44 185q0 123 47 187t116 64q42 0 75.5 -25t47.5 -74h2q18 47 51 73t75 26q67 0 100.5 -62.5t33.5 -151.5
q0 -9 -0.5 -23t-0.5 -18zM197 431h-1q-26 0 -44.5 -19t-26.5 -50t-11.5 -60t-3.5 -60q0 -189 88 -189q85 0 85 190q0 188 -86 188zM357 292h150q2 67 -19 103.5t-49 36.5q-37 0 -58.5 -42t-23.5 -98z" />
    <glyph glyph-name="Racute" unicode="&#x154;" horiz-adv-x="409" 
d="M60 0v664q48 13 111 13q103 0 152 -48q47 -48 47 -132q0 -123 -108 -174v-2q37 -11 58 -47.5t32 -103.5q24 -139 39 -170h-78q-14 28 -36 166q-11 70 -36 98.5t-74 28.5h-30v-293h-77zM137 611v-258h32q55 0 89 37t34 98q0 126 -115 127q-27 0 -40 -4zM245 818h91
l-124 -108h-61z" />
    <glyph glyph-name="racute" unicode="&#x155;" horiz-adv-x="248" 
d="M53 0v359q0 24 -2 71.5t-2 53.5h69l4 -76h2q12 36 40.5 60t61.5 24q11 0 16 -1v-79q-5 1 -16 1q-36 0 -61.5 -29t-31.5 -72q-3 -20 -3 -44v-268h-77zM180 682h79l-105 -135h-51z" />
    <glyph glyph-name="Rcommaaccent" unicode="&#x156;" horiz-adv-x="409" 
d="M60 0v664q48 13 111 13q103 0 152 -48q47 -48 47 -132q0 -123 -108 -174v-2q37 -11 58 -47.5t32 -103.5q24 -139 39 -170h-78q-14 28 -36 166q-11 70 -36 98.5t-74 28.5h-30v-293h-77zM137 611v-258h32q55 0 89 37t34 98q0 126 -115 127q-27 0 -40 -4zM157 -207l-16 37
q26 7 45 23t19 39q0 35 -34 61l62 12q35 -25 35 -70q0 -44 -31.5 -69t-79.5 -33z" />
    <glyph glyph-name="rcommaaccent" unicode="&#x157;" horiz-adv-x="248" 
d="M53 0v359q0 24 -2 71.5t-2 53.5h69l4 -76h2q12 36 40.5 60t61.5 24q11 0 16 -1v-79q-5 1 -16 1q-36 0 -61.5 -29t-31.5 -72q-3 -20 -3 -44v-268h-77zM54 -214l-16 37q26 7 45 23t19 39q0 35 -34 61l62 12q35 -25 35 -70q0 -44 -31.5 -69t-79.5 -33z" />
    <glyph glyph-name="Rcaron" unicode="&#x158;" horiz-adv-x="409" 
d="M60 0v664q48 13 111 13q103 0 152 -48q47 -48 47 -132q0 -123 -108 -174v-2q37 -11 58 -47.5t32 -103.5q24 -139 39 -170h-78q-14 28 -36 166q-11 70 -36 98.5t-74 28.5h-30v-293h-77zM137 611v-258h32q55 0 89 37t34 98q0 126 -115 127q-27 0 -40 -4zM230 710h-66
l-87 98h67l52 -58h2l52 58h66z" />
    <glyph glyph-name="rcaron" unicode="&#x159;" horiz-adv-x="248" 
d="M53 0v359q0 24 -2 71.5t-2 53.5h69l4 -76h2q12 36 40.5 60t61.5 24q11 0 16 -1v-79q-5 1 -16 1q-36 0 -61.5 -29t-31.5 -72q-3 -20 -3 -44v-268h-77zM162 547h-53l-79 135h58l46 -87h2l47 87h58z" />
    <glyph glyph-name="Sacute" unicode="&#x15a;" horiz-adv-x="361" 
d="M28 24l17 65q44 -27 97 -27q52 0 82 31t30 83q0 43 -22 74.5t-67 65.5q-127 89 -127 187q0 77 49.5 127t128.5 50q59 0 95 -25l-19 -66q-33 23 -80 23q-46 0 -71.5 -29t-25.5 -67q0 -46 21.5 -73t77.5 -66q117 -82 117 -194q0 -85 -53.5 -137t-135.5 -52q-33 0 -66 9
t-48 21zM230 818h91l-124 -108h-61z" />
    <glyph glyph-name="sacute" unicode="&#x15b;" horiz-adv-x="289" 
d="M22 22l19 58q39 -25 78 -25q32 0 51.5 19t19.5 51q0 29 -13.5 50.5t-48.5 44.5q-97 63 -97 138q0 59 38 96.5t95 37.5q48 0 86 -25l-20 -58q-32 22 -65 22q-29 0 -45.5 -18t-16.5 -44q0 -25 12.5 -42t47.5 -41q100 -64 100 -148q0 -70 -41.5 -107t-104.5 -37
q-60 0 -95 28zM190 682h79l-105 -135h-51z" />
    <glyph glyph-name="Scircumflex" unicode="&#x15c;" horiz-adv-x="361" 
d="M28 24l17 65q44 -27 97 -27q52 0 82 31t30 83q0 43 -22 74.5t-67 65.5q-127 89 -127 187q0 77 49.5 127t128.5 50q59 0 95 -25l-19 -66q-33 23 -80 23q-46 0 -71.5 -29t-25.5 -67q0 -46 21.5 -73t77.5 -66q117 -82 117 -194q0 -85 -53.5 -137t-135.5 -52q-33 0 -66 9
t-48 21zM157 808h66l87 -98h-67l-52 55h-2l-52 -55h-66z" />
    <glyph glyph-name="scircumflex" unicode="&#x15d;" horiz-adv-x="289" 
d="M22 22l19 58q39 -25 78 -25q32 0 51.5 19t19.5 51q0 29 -13.5 50.5t-48.5 44.5q-97 63 -97 138q0 59 38 96.5t95 37.5q48 0 86 -25l-20 -58q-32 22 -65 22q-29 0 -45.5 -18t-16.5 -44q0 -25 12.5 -42t47.5 -41q100 -64 100 -148q0 -70 -41.5 -107t-104.5 -37
q-60 0 -95 28zM119 682h52l79 -135h-58l-46 87h-2l-46 -87h-58z" />
    <glyph glyph-name="Scedilla" unicode="&#x15e;" horiz-adv-x="361" 
d="M28 24l17 65q44 -27 97 -27q52 0 82 31t30 83q0 43 -22 74.5t-67 65.5q-127 89 -127 187q0 77 49.5 127t128.5 50q59 0 95 -25l-19 -66q-33 23 -80 23q-46 0 -71.5 -29t-25.5 -67q0 -46 21.5 -73t76.5 -66q118 -82 118 -194q0 -69 -35.5 -116.5t-94.5 -64.5l-27 -52
q26 -4 45.5 -24t19.5 -47q0 -40 -27 -59.5t-64 -19.5q-35 0 -66 18l16 42q22 -15 49 -15q36 0 36 31q0 35 -68 43l34 75h-7q-33 0 -66 9t-48 21z" />
    <glyph glyph-name="Scedilla" unicode="&#xf6c1;" horiz-adv-x="361" 
d="M28 24l17 65q44 -27 97 -27q52 0 82 31t30 83q0 43 -22 74.5t-67 65.5q-127 89 -127 187q0 77 49.5 127t128.5 50q59 0 95 -25l-19 -66q-33 23 -80 23q-46 0 -71.5 -29t-25.5 -67q0 -46 21.5 -73t76.5 -66q118 -82 118 -194q0 -69 -35.5 -116.5t-94.5 -64.5l-27 -52
q26 -4 45.5 -24t19.5 -47q0 -40 -27 -59.5t-64 -19.5q-35 0 -66 18l16 42q22 -15 49 -15q36 0 36 31q0 35 -68 43l34 75h-7q-33 0 -66 9t-48 21z" />
    <glyph glyph-name="scedilla" unicode="&#x15f;" horiz-adv-x="289" 
d="M22 22l19 58q39 -25 78 -25q32 0 51.5 19t19.5 51q0 29 -13.5 50.5t-48.5 44.5q-97 63 -97 138q0 59 38 96.5t95 37.5q48 0 86 -25l-20 -58q-32 22 -65 22q-29 0 -45.5 -18t-16.5 -44q0 -25 12.5 -42t47.5 -41q100 -64 100 -148q0 -55 -26 -89.5t-69 -47.5l-26 -51
q26 -4 45.5 -24t19.5 -47q0 -40 -27 -59.5t-64 -19.5q-35 0 -66 18l15 42q24 -15 50 -15q36 0 36 30q0 37 -68 44l34 75h-4q-52 0 -91 28z" />
    <glyph glyph-name="scedilla" unicode="&#xf6c2;" horiz-adv-x="289" 
d="M22 22l19 58q39 -25 78 -25q32 0 51.5 19t19.5 51q0 29 -13.5 50.5t-48.5 44.5q-97 63 -97 138q0 59 38 96.5t95 37.5q48 0 86 -25l-20 -58q-32 22 -65 22q-29 0 -45.5 -18t-16.5 -44q0 -25 12.5 -42t47.5 -41q100 -64 100 -148q0 -55 -26 -89.5t-69 -47.5l-26 -51
q26 -4 45.5 -24t19.5 -47q0 -40 -27 -59.5t-64 -19.5q-35 0 -66 18l15 42q24 -15 50 -15q36 0 36 30q0 37 -68 44l34 75h-4q-52 0 -91 28z" />
    <glyph glyph-name="Scaron" unicode="&#x160;" horiz-adv-x="361" 
d="M28 24l17 65q44 -27 97 -27q52 0 82 31t30 83q0 43 -22 74.5t-67 65.5q-127 89 -127 187q0 77 49.5 127t128.5 50q59 0 95 -25l-19 -66q-33 23 -80 23q-46 0 -71.5 -29t-25.5 -67q0 -46 21.5 -73t77.5 -66q117 -82 117 -194q0 -85 -53.5 -137t-135.5 -52q-33 0 -66 9
t-48 21zM230 710h-66l-87 98h67l52 -58h2l52 58h66z" />
    <glyph glyph-name="scaron" unicode="&#x161;" horiz-adv-x="289" 
d="M22 22l19 58q39 -25 78 -25q32 0 51.5 19t19.5 51q0 29 -13.5 50.5t-48.5 44.5q-97 63 -97 138q0 59 38 96.5t95 37.5q48 0 86 -25l-20 -58q-32 22 -65 22q-29 0 -45.5 -18t-16.5 -44q0 -25 12.5 -42t47.5 -41q100 -64 100 -148q0 -70 -41.5 -107t-104.5 -37
q-60 0 -95 28zM173 547h-53l-79 135h58l46 -87h2l47 87h58z" />
    <glyph glyph-name="Tcommaaccent" unicode="&#x162;" horiz-adv-x="354" 
d="M139 0v605h-123v69h323v-69h-123v-605h-77zM122 -214l-16 37q26 7 45 23t19 39q0 35 -34 61l62 12q35 -25 35 -70q0 -44 -31.5 -69t-79.5 -33z" />
    <glyph glyph-name="Tcommaaccent" unicode="&#x21a;" horiz-adv-x="354" 
d="M139 0v605h-123v69h323v-69h-123v-605h-77zM122 -214l-16 37q26 7 45 23t19 39q0 35 -34 61l62 12q35 -25 35 -70q0 -44 -31.5 -69t-79.5 -33z" />
    <glyph glyph-name="tcommaaccent" unicode="&#x163;" horiz-adv-x="255" 
d="M71 566l77 31v-113h93v-58h-93v-288q0 -80 50 -80q19 0 31 3l4 -59q-22 -8 -57 -8q-51 0 -76 29q-29 32 -29 122v281h-59v58h59v82zM84 -214l-16 37q26 7 45 23t19 39q0 35 -34 61l62 12q35 -25 35 -70q0 -44 -31.5 -69t-79.5 -33z" />
    <glyph glyph-name="tcommaaccent" unicode="&#x21b;" horiz-adv-x="255" 
d="M71 566l77 31v-113h93v-58h-93v-288q0 -80 50 -80q19 0 31 3l4 -59q-22 -8 -57 -8q-51 0 -76 29q-29 32 -29 122v281h-59v58h59v82zM84 -214l-16 37q26 7 45 23t19 39q0 35 -34 61l62 12q35 -25 35 -70q0 -44 -31.5 -69t-79.5 -33z" />
    <glyph glyph-name="Tcaron" unicode="&#x164;" horiz-adv-x="354" 
d="M139 0v605h-123v69h323v-69h-123v-605h-77zM209 710h-66l-87 98h67l52 -58h2l52 58h66z" />
    <glyph glyph-name="tcaron" unicode="&#x165;" horiz-adv-x="265" 
d="M71 566l77 31v-113h93v-58h-93v-288q0 -80 51 -80q17 0 31 3l3 -59q-21 -8 -57 -8q-51 0 -76 29q-29 32 -29 122v281h-59v58h59v82zM263 537l-37 20q29 35 29 81q0 40 -30 62l60 11q33 -23 33 -66q0 -56 -55 -108z" />
    <glyph glyph-name="Tbar" unicode="&#x166;" horiz-adv-x="354" 
d="M339 605h-123v-226h84v-56h-84v-323h-77v323h-84v56h84v226h-123v69h323v-69z" />
    <glyph glyph-name="tbar" unicode="&#x167;" horiz-adv-x="255" 
d="M241 426h-93v-116h73v-53h-73v-119q0 -80 50 -80q19 0 31 3l4 -59q-22 -8 -57 -8q-51 0 -76 29q-29 32 -29 122v112h-55v53h55v116h-59v58h59v82l77 31v-113h93v-58z" />
    <glyph glyph-name="Utilde" unicode="&#x168;" horiz-adv-x="457" 
d="M59 674h77v-452q0 -162 91 -162q94 0 94 162v452h77v-440q0 -125 -46 -183.5t-126 -58.5q-167 0 -167 233v449zM164 718h-41q-1 43 15 68.5t44 25.5q19 0 47 -17q30 -18 40 -18q12 0 18 8t8 29h40q2 -90 -62 -90q-24 0 -49 17q-26 16 -36 16q-20 0 -24 -39z" />
    <glyph glyph-name="utilde" unicode="&#x169;" horiz-adv-x="398" 
d="M344 484v-352q0 -32 2 -81.5t2 -50.5h-67l-6 51h-2q-13 -22 -40.5 -40.5t-62.5 -18.5q-118 0 -118 186v306h77v-295q0 -63 14 -97.5t51 -34.5q30 0 47.5 21t21.5 44q4 17 4 43v319h77zM133 561h-43q-1 41 15.5 67.5t46.5 26.5q21 0 49 -18q32 -17 40 -17q24 0 25 36h41
q0 -89 -63 -89q-19 0 -49 17t-38 17q-21 0 -24 -40z" />
    <glyph glyph-name="Umacron" unicode="&#x16a;" horiz-adv-x="457" 
d="M59 674h77v-452q0 -162 91 -162q94 0 94 162v452h77v-440q0 -125 -46 -183.5t-126 -58.5q-167 0 -167 233v449zM122 788h213v-53h-213v53z" />
    <glyph glyph-name="umacron" unicode="&#x16b;" horiz-adv-x="398" 
d="M344 484v-352q0 -32 2 -81.5t2 -50.5h-67l-6 51h-2q-13 -22 -40.5 -40.5t-62.5 -18.5q-118 0 -118 186v306h77v-295q0 -63 14 -97.5t51 -34.5q30 0 47.5 21t21.5 44q4 17 4 43v319h77zM100 631h197v-51h-197v51z" />
    <glyph glyph-name="Ubreve" unicode="&#x16c;" horiz-adv-x="457" 
d="M59 674h77v-452q0 -162 91 -162q94 0 94 162v452h77v-440q0 -125 -46 -183.5t-126 -58.5q-167 0 -167 233v449zM122 806h45q8 -43 61 -43t62 43h45q0 -43 -29 -69.5t-77 -26.5q-50 0 -78.5 25.5t-28.5 70.5z" />
    <glyph glyph-name="ubreve" unicode="&#x16d;" horiz-adv-x="398" 
d="M344 484v-352q0 -32 2 -81.5t2 -50.5h-67l-6 51h-2q-13 -22 -40.5 -40.5t-62.5 -18.5q-118 0 -118 186v306h77v-295q0 -63 14 -97.5t51 -34.5q30 0 47.5 21t21.5 44q4 17 4 43v319h77zM93 669h44q1 -28 18 -44.5t43 -16.5q29 0 46 17t18 44h43q2 -49 -27.5 -81t-79.5 -32
t-78.5 32t-26.5 81z" />
    <glyph glyph-name="Uring" unicode="&#x16e;" horiz-adv-x="457" 
d="M59 674h77v-452q0 -162 91 -162q94 0 94 162v452h77v-440q0 -125 -46 -183.5t-126 -58.5q-167 0 -167 233v449zM229 862h1q42 0 67 -25.5t25 -62.5q0 -36 -26 -61.5t-67 -25.5q-43 0 -68.5 25t-25.5 61q0 37 26 63t68 26zM228 826h-1q-21 0 -32.5 -15.5t-11.5 -37.5
q0 -19 12.5 -34t32.5 -15q21 0 33.5 14.5t12.5 36.5q0 21 -12.5 36t-33.5 15z" />
    <glyph glyph-name="uring" unicode="&#x16f;" horiz-adv-x="398" 
d="M344 484v-352q0 -32 2 -81.5t2 -50.5h-67l-6 51h-2q-13 -22 -40.5 -40.5t-62.5 -18.5q-118 0 -118 186v306h77v-295q0 -63 14 -97.5t51 -34.5q30 0 47.5 21t21.5 44q4 17 4 43v319h77zM200 707h1q41 0 66 -25t25 -63q0 -36 -26.5 -61t-65.5 -25q-42 0 -68 24.5t-26 60.5
q0 38 25.5 63.5t68.5 25.5zM199 672h-1q-21 0 -33 -16t-12 -38q0 -19 12.5 -34.5t33.5 -15.5q22 0 35 15t13 37t-12.5 37t-35.5 15z" />
    <glyph glyph-name="Uhungarumlaut" unicode="&#x170;" horiz-adv-x="457" 
d="M59 674h77v-452q0 -162 91 -162q94 0 94 162v452h77v-440q0 -125 -46 -183.5t-126 -58.5q-167 0 -167 233v449zM199 818h81l-99 -99h-54zM326 818h81l-99 -99h-54z" />
    <glyph glyph-name="uhungarumlaut" unicode="&#x171;" horiz-adv-x="398" 
d="M344 484v-352q0 -32 2 -81.5t2 -50.5h-67l-6 51h-2q-13 -22 -40.5 -40.5t-62.5 -18.5q-118 0 -118 186v306h77v-295q0 -63 14 -97.5t51 -34.5q30 0 47.5 21t21.5 44q4 17 4 43v319h77zM189 682h69l-104 -135h-44zM312 682h70l-104 -135h-44z" />
    <glyph glyph-name="Uogonek" unicode="&#x172;" horiz-adv-x="457" 
d="M323 -127l11 -43q-31 -22 -72 -22q-38 0 -61 20.5t-23 55.5q0 55 50 109h-12q-157 7 -157 232v449h77v-452q0 -162 91 -162q94 0 94 162v452h77v-440q0 -176 -93 -222q-28 -22 -47 -52t-19 -56q0 -21 11.5 -31.5t28.5 -10.5q24 0 44 11z" />
    <glyph glyph-name="uogonek" unicode="&#x173;" horiz-adv-x="398" 
d="M344 484v-352q0 -68 6 -132h-15q-41 -56 -41 -103q0 -22 12.5 -34t28.5 -12q27 0 43 8l11 -43q-30 -21 -72 -21q-39 0 -61.5 22t-22.5 61q0 51 48 122l-6 51h-2q-13 -22 -40.5 -40.5t-62.5 -18.5q-118 0 -118 186v306h77v-295q0 -63 14 -97.5t51 -34.5q30 0 47.5 21
t21.5 44q4 17 4 43v319h77z" />
    <glyph glyph-name="Wcircumflex" unicode="&#x174;" horiz-adv-x="654" 
d="M222 0h-73l-129 674h79l57 -325q20 -112 34 -243h3q8 79 41 244l62 324h65l63 -317q31 -163 39 -251h3q10 90 35 247l56 321h76l-131 -674h-76l-64 328q-21 107 -35 221h-2q-13 -114 -37 -224zM297 808h66l87 -98h-67l-52 55h-2l-52 -55h-66z" />
    <glyph glyph-name="wcircumflex" unicode="&#x175;" horiz-adv-x="566" 
d="M13 484h80l47 -237q20 -104 26 -154h4q9 64 30 152l56 239h59l53 -232q22 -100 31 -159h4q7 63 26 156l46 235h77l-122 -484h-63l-56 235q-14 54 -27 145h-2q-11 -75 -28 -148l-58 -232h-65zM257 682h52l79 -135h-58l-46 87h-2l-46 -87h-58z" />
    <glyph glyph-name="Ycircumflex" unicode="&#x176;" horiz-adv-x="394" 
d="M235 0h-77v285l-149 389h82l60 -169q40 -118 50 -152h2q12 48 49 155l57 166h80l-154 -386v-288zM168 808h66l87 -98h-67l-52 55h-2l-52 -55h-66z" />
    <glyph glyph-name="ycircumflex" unicode="&#x177;" horiz-adv-x="346" 
d="M13 484h81l64 -278q5 -21 11 -54t9 -46h2q6 33 21 99l57 279h76l-79 -311q-57 -230 -120 -312q-40 -51 -87 -73l-28 65q38 22 68 61q29 38 44 82q5 14 5 24q0 12 -2 18zM148 682h52l79 -135h-58l-46 87h-2l-46 -87h-58z" />
    <glyph glyph-name="Ydieresis" unicode="&#x178;" horiz-adv-x="394" 
d="M235 0h-77v285l-149 389h82l60 -169q40 -118 50 -152h2q12 48 49 155l57 166h80l-154 -386v-288zM123 718h-1q-18 0 -30 13t-12 34q0 19 12.5 32.5t30.5 13.5q19 0 31 -13t12 -33q0 -21 -12 -34t-31 -13zM284 718h-1q-18 0 -30 13t-12 34q0 19 12.5 32.5t30.5 13.5
q19 0 31 -13t12 -33q0 -21 -12 -34t-31 -13z" />
    <glyph glyph-name="Zacute" unicode="&#x179;" horiz-adv-x="358" 
d="M20 0v46l231 560v2h-212v66h299v-52l-228 -553v-3h227v-66h-317zM234 818h91l-124 -108h-61z" />
    <glyph glyph-name="zacute" unicode="&#x17a;" horiz-adv-x="313" 
d="M16 0v47l153 300q5 9 19 34t20 37v2h-173v64h259v-51l-152 -295q-4 -8 -12.5 -23t-15 -27t-11.5 -22v-2h190v-64h-277zM208 682h79l-105 -135h-51z" />
    <glyph glyph-name="Zdotaccent" unicode="&#x17b;" horiz-adv-x="358" 
d="M20 0v46l231 560v2h-212v66h299v-52l-228 -553v-3h227v-66h-317zM193 721h-1q-18 0 -31 13t-13 31q0 19 13 32t32 13t31.5 -13t12.5 -32q0 -18 -12.5 -31t-31.5 -13z" />
    <glyph glyph-name="zdotaccent" unicode="&#x17c;" horiz-adv-x="313" 
d="M16 0v47l153 300q5 9 19 34t20 37v2h-173v64h259v-51l-152 -295q-4 -8 -12.5 -23t-15 -27t-11.5 -22v-2h190v-64h-277zM162 566h-1q-18 0 -31 12.5t-13 31.5t13 32t32 13q18 0 30 -12.5t12 -32.5q0 -19 -12 -31.5t-30 -12.5z" />
    <glyph glyph-name="Zcaron" unicode="&#x17d;" horiz-adv-x="358" 
d="M20 0v46l231 560v2h-212v66h299v-52l-228 -553v-3h227v-66h-317zM222 710h-66l-87 98h67l52 -58h2l52 58h66z" />
    <glyph glyph-name="zcaron" unicode="&#x17e;" horiz-adv-x="313" 
d="M16 0v47l153 300q5 9 19 34t20 37v2h-173v64h259v-51l-152 -295q-4 -8 -12.5 -23t-15 -27t-11.5 -22v-2h190v-64h-277zM193 547h-53l-79 135h58l46 -87h2l47 87h58z" />
    <glyph glyph-name="florin" unicode="&#x192;" horiz-adv-x="385" 
d="M77 346v60h81l8 55q24 197 156 197q34 0 56 -12l-13 -57q-20 7 -43 7q-65 0 -82 -127l-8 -63h91v-60h-96l-29 -230q-12 -97 -44 -146.5t-103 -49.5q-42 2 -64 17l15 56q22 -11 46 -11q32 0 51 34.5t29 116.5l25 213h-76z" />
    <glyph glyph-name="AEacute" unicode="&#x1fc;" horiz-adv-x="556" 
d="M84 0h-76l204 674h304l-1 -67h-185l12 -226h172v-65h-166l14 -249h180l-1 -67h-247l-14 222h-134zM163 284h112l-9 205q-1 23 -3.5 67.5t-3.5 63.5h-5q-5 -20 -18.5 -70t-19.5 -73zM384 818h91l-124 -108h-61z" />
    <glyph glyph-name="aeacute" unicode="&#x1fd;" horiz-adv-x="561" 
d="M531 241h-225q0 -188 114 -188q45 0 82 21l14 -55q-43 -27 -112 -27q-45 0 -82 24.5t-51 68.5h-2q-16 -44 -48 -68.5t-76 -24.5q-52 0 -85.5 38.5t-33.5 101.5q0 83 59 126.5t148 44.5v26q0 46 -20 74.5t-61 28.5q-42 0 -78 -25l-17 53q47 32 111 32q40 0 70.5 -22
t40.5 -65h2q16 41 47.5 64t70.5 23q66 0 99.5 -62t33.5 -151q0 -7 -0.5 -19t-0.5 -19zM234 154v95q-21 0 -39.5 -3.5t-43 -13.5t-39 -34.5t-14.5 -60.5q0 -42 18.5 -63t44.5 -21q25 0 44 19.5t26 53.5q3 14 3 28zM308 296h150q2 66 -18.5 102t-50.5 36q-37 0 -58 -41
t-23 -97zM332 682h79l-105 -135h-51z" />
    <glyph glyph-name="Oslashacute" unicode="&#x1fe;" horiz-adv-x="446" 
d="M86 -37l-42 23l42 95q-54 88 -54 256q0 164 53 254.5t139 90.5q59 0 101 -41l30 70l46 -20l-40 -91q53 -90 53 -257q0 -179 -53.5 -265t-137.5 -86q-62 0 -103 46zM129 171l164 399q-29 44 -69 44q-31 0 -54 -23.5t-36 -64t-19 -87.5t-6 -101q0 -103 18 -167h2zM317 507
l-168 -397q28 -50 75 -50q41 0 67.5 42.5t36 102t9.5 134.5q0 102 -18 167zM275 818h91l-124 -108h-61z" />
    <glyph glyph-name="oslashacute" unicode="&#x1ff;" horiz-adv-x="383" 
d="M193 492h1q44 0 80 -29l26 52l41 -21l-33 -69q43 -64 43 -183q0 -128 -47.5 -189t-110.5 -61q-47 0 -82 28l-25 -53l-39 25l31 64q-45 66 -45 185q0 124 47 187.5t113 63.5zM122 130l122 269q-14 32 -52 32q-26 0 -44 -19t-26.5 -50.5t-11.5 -60t-3 -59.5q0 -63 13 -110z
M263 348l-120 -265q17 -30 50 -30q25 0 42.5 17.5t26 47t12 58.5t3.5 61q0 66 -12 110zM230 682h79l-105 -135h-51z" />
    <glyph glyph-name="Scommaaccent" unicode="&#x218;" horiz-adv-x="361" 
d="M28 24l17 65q44 -27 97 -27q52 0 82 31t30 83q0 43 -22 74.5t-67 65.5q-127 89 -127 187q0 77 49.5 127t128.5 50q59 0 95 -25l-19 -66q-33 23 -80 23q-46 0 -71.5 -29t-25.5 -67q0 -46 21.5 -73t77.5 -66q117 -82 117 -194q0 -85 -53.5 -137t-135.5 -52q-33 0 -66 9
t-48 21zM119 -214l-16 37q26 7 45 23t19 39q0 35 -34 61l62 12q35 -25 35 -70q0 -44 -31.5 -69t-79.5 -33z" />
    <glyph glyph-name="scommaaccent" unicode="&#x219;" horiz-adv-x="289" 
d="M22 22l19 58q39 -25 78 -25q32 0 51.5 19t19.5 51q0 29 -13.5 50.5t-48.5 44.5q-97 63 -97 138q0 59 38 96.5t95 37.5q48 0 86 -25l-20 -58q-32 22 -65 22q-29 0 -45.5 -18t-16.5 -44q0 -25 12.5 -42t47.5 -41q100 -64 100 -148q0 -70 -41.5 -107t-104.5 -37
q-60 0 -95 28zM89 -214l-16 37q26 7 45 23t19 39q0 35 -34 61l62 12q35 -25 35 -70q0 -44 -31.5 -69t-79.5 -33z" />
    <glyph glyph-name="circumflex" unicode="&#x2c6;" 
d="M124 682h52l79 -135h-58l-46 87h-2l-46 -87h-58z" />
    <glyph glyph-name="caron" unicode="&#x2c7;" 
d="M177 547h-53l-79 135h58l46 -87h2l47 87h58z" />
    <glyph glyph-name="breve" unicode="&#x2d8;" 
d="M44 669h44q1 -28 18 -44.5t43 -16.5q29 0 46 17t18 44h43q2 -49 -27.5 -81t-79.5 -32t-78.5 32t-26.5 81z" />
    <glyph glyph-name="dotaccent" unicode="&#x2d9;" 
d="M152 566h-1q-18 0 -31 12.5t-13 31.5t13 32t32 13q18 0 30 -12.5t12 -32.5q0 -19 -12 -31.5t-30 -12.5z" />
    <glyph glyph-name="ring" unicode="&#x2da;" horiz-adv-x="400" 
d="M201 707h1q41 0 66 -25t25 -63q0 -36 -26.5 -61t-65.5 -25q-42 0 -68 24.5t-26 60.5q0 38 25.5 63.5t68.5 25.5zM200 672h-1q-21 0 -33 -16t-12 -38q0 -19 12.5 -34.5t33.5 -15.5q22 0 35 15t13 37t-12.5 37t-35.5 15z" />
    <glyph glyph-name="ogonek" unicode="&#x2db;" 
d="M123 5h54q-44 -66 -44 -102q0 -22 12.5 -34t28.5 -12q24 0 43 9l11 -43q-29 -22 -72 -22q-38 0 -61 22t-23 59q0 58 51 123z" />
    <glyph glyph-name="tilde" unicode="&#x2dc;" 
d="M84 561h-43q-1 41 15.5 67.5t46.5 26.5q21 0 49 -18q32 -17 40 -17q24 0 25 36h41q0 -89 -63 -89q-19 0 -49 17t-38 17q-21 0 -24 -40z" />
    <glyph glyph-name="hungarumlaut" unicode="&#x2dd;" 
d="M113 682h69l-104 -135h-44zM236 682h70l-104 -135h-44z" />
    <glyph glyph-name="uni037E" unicode="&#x37e;" horiz-adv-x="200" 
d="M82 -119l-51 -7q37 127 45 233l85 5q-12 -55 -36.5 -125.5t-42.5 -105.5zM112 329h-1q-22 0 -37 16.5t-15 42.5t15 43.5t38 17.5q24 0 38.5 -17t14.5 -44q0 -26 -14.5 -42.5t-38.5 -16.5z" />
    <glyph glyph-name="tonos" unicode="&#x384;" horiz-adv-x="305" 
d="M108 683h68l-56 -135h-45z" />
    <glyph glyph-name="dieresistonos" unicode="&#x385;" horiz-adv-x="350" 
d="M152 692h66l-36 -147h-42zM73 568h-1q-18 0 -30 11.5t-12 29.5t12.5 29.5t30.5 11.5q16 0 27 -11.5t11 -29.5t-11.5 -29.5t-26.5 -11.5zM274 568h-1q-16 0 -28 11.5t-12 29.5t12 29.5t29 11.5t28.5 -11.5t11.5 -29.5t-11.5 -29.5t-28.5 -11.5z" />
    <glyph glyph-name="Alphatonos" unicode="&#x386;" horiz-adv-x="444" 
d="M300 202h-150l-44 -202h-75l154 674h85l150 -674h-76zM161 264h128l-35 171q-10 49 -27 154h-3q-15 -95 -28 -154zM45 674h65l-28 -148h-41z" />
    <glyph glyph-name="anoteleia" unicode="&#x387;" horiz-adv-x="200" 
d="M100 257h-1q-23 0 -38.5 17.5t-15.5 44.5t16 45t39 18q25 0 40 -17.5t15 -45.5t-15 -45t-40 -17z" />
    <glyph glyph-name="Epsilontonos" unicode="&#x388;" horiz-adv-x="406" 
d="M358 385v-65h-169v-253h192v-67h-269v674h257v-67h-180v-222h169zM4 674h66l-29 -148h-41z" />
    <glyph glyph-name="Etatonos" unicode="&#x389;" horiz-adv-x="515" 
d="M112 674h77v-289h189v289h77v-674h-77v315h-189v-315h-77v674zM4 674h66l-29 -148h-41z" />
    <glyph glyph-name="Iotatonos" unicode="&#x38a;" horiz-adv-x="249" 
d="M112 674h77v-674h-77v674zM4 674h66l-29 -148h-41z" />
    <glyph glyph-name="Omicrontonos" unicode="&#x38c;" horiz-adv-x="482" 
d="M256 -8h-1q-86 0 -136.5 89.5t-50.5 256.5q0 164 54 254t144 90q86 0 135 -89.5t49 -250.5q0 -179 -53.5 -264.5t-140.5 -85.5zM260 60h1q31 0 53 24.5t34 66.5t17 88t5 100q0 51 -5 96.5t-17 87.5t-34.5 66.5t-53.5 24.5q-41 0 -67.5 -44t-35.5 -102.5t-9 -129.5
q0 -53 5.5 -99.5t17.5 -88t35 -66t54 -24.5zM4 674h66l-29 -148h-41z" />
    <glyph glyph-name="Upsilontonos" unicode="&#x38e;" horiz-adv-x="514" 
d="M95 615l16 65q11 -1 35.5 -12.5t43.5 -29.5q43 -39 73.5 -114t37.5 -170h4q17 166 108 267q39 41 83 59l16 -67q-54 -28 -100 -111t-65 -205q-10 -62 -10 -118v-179h-77v179q0 46 -6 116q-35 267 -159 320zM4 674h65l-28 -148h-41z" />
    <glyph glyph-name="Omegatonos" unicode="&#x38f;" horiz-adv-x="504" 
d="M372 70v-4h99v-66h-177v52q42 46 66 131t23 176q0 46 -6 88.5t-18.5 81.5t-36 62t-54.5 23q-41 0 -68.5 -41t-37.5 -95t-10 -116q0 -85 25.5 -176t63.5 -134v-52h-177v66h99v4q-40 55 -65.5 134.5t-25.5 168.5q0 143 56.5 226t145.5 83q87 0 138 -82.5t51 -221.5
q0 -93 -26 -174.5t-65 -133.5zM4 674h66l-29 -148h-41z" />
    <glyph glyph-name="iotadieresistonos" unicode="&#x390;" horiz-adv-x="188" 
d="M131 484v-383q0 -28 8 -38.5t29 -10.5l-7 -57q-13 -3 -29 -3q-35 0 -56.5 21.5t-21.5 82.5v388h77zM83 683h64l-35 -145h-41zM5 562h-1q-18 0 -30 11.5t-12 29.5t12.5 29t30.5 11q15 0 26.5 -11.5t11.5 -28.5q0 -18 -11.5 -29.5t-26.5 -11.5zM203 562h-1q-16 0 -28 11.5
t-12 29.5q0 17 12.5 28.5t28.5 11.5q17 0 28.5 -11t11.5 -29t-11.5 -29.5t-28.5 -11.5z" />
    <glyph glyph-name="Alpha" unicode="&#x391;" horiz-adv-x="435" 
d="M291 202h-150l-44 -202h-75l154 674h85l150 -674h-76zM152 264h128l-35 171q-10 49 -27 154h-3q-15 -94 -28 -155z" />
    <glyph glyph-name="Beta" unicode="&#x392;" horiz-adv-x="416" 
d="M60 3v661q52 13 113 13q99 0 149 -46q44 -42 44 -116q0 -52 -27.5 -91.5t-76.5 -58.5v-3q59 -15 92 -60.5t33 -111.5q0 -80 -48 -133q-54 -61 -178 -61q-64 0 -101 7zM137 612v-225h35q48 0 82.5 34t34.5 85q0 111 -111 111q-26 0 -41 -5zM137 329v-269q13 -3 39 -3
q60 0 95.5 35t35.5 99q0 66 -39 101.5t-97 36.5h-34z" />
    <glyph glyph-name="Gamma" unicode="&#x393;" horiz-adv-x="331" 
d="M60 674h257v-65h-180v-609h-77v674z" />
    <glyph glyph-name="Delta" unicode="&#x394;" horiz-adv-x="436" 
d="M24 0v44l153 630h86l150 -629v-45h-389zM101 68h234l-83 350q-19 85 -33 171h-3q-12 -76 -33 -169z" />
    <glyph glyph-name="Delta" unicode="&#xe000;" horiz-adv-x="436" 
d="M24 0v44l153 630h86l150 -629v-45h-389zM101 68h234l-83 350q-19 85 -33 171h-3q-12 -76 -33 -169z" />
    <glyph glyph-name="Epsilon" unicode="&#x395;" horiz-adv-x="354" 
d="M306 385v-65h-169v-253h192v-67h-269v674h257v-67h-180v-222h169z" />
    <glyph glyph-name="Zeta" unicode="&#x396;" horiz-adv-x="358" 
d="M20 0v46l231 560v2h-212v66h299v-52l-228 -553v-3h227v-66h-317z" />
    <glyph glyph-name="Eta" unicode="&#x397;" horiz-adv-x="463" 
d="M60 674h77v-289h189v289h77v-674h-77v315h-189v-315h-77v674z" />
    <glyph glyph-name="Theta" unicode="&#x398;" horiz-adv-x="449" 
d="M221 -8h-1q-86 0 -137 89.5t-51 256.5q0 164 54.5 254t145.5 90q87 0 136 -89.5t49 -250.5q0 -180 -54 -265t-142 -85zM225 59h1q32 0 54.5 24.5t34.5 66.5t17.5 88.5t5.5 100.5q0 52 -5.5 97.5t-17.5 87.5t-35 66.5t-55 24.5t-55 -24.5t-35.5 -66t-18 -88t-5.5 -98.5
q0 -116 27 -197.5t87 -81.5zM150 382h149v-70h-149v70z" />
    <glyph glyph-name="Iota" unicode="&#x399;" horiz-adv-x="199" 
d="M60 674h77v-674h-77v674z" />
    <glyph glyph-name="Kappa" unicode="&#x39a;" horiz-adv-x="404" 
d="M60 0v674h77v-320h2q23 42 42 81l125 239h86l-165 -288l169 -386h-83l-138 325l-38 -65v-260h-77z" />
    <glyph glyph-name="Lambda" unicode="&#x39b;" horiz-adv-x="434" 
d="M412 0h-79l-87 405q-15 70 -30 175h-4q-8 -62 -28 -176l-85 -404h-78l155 674h81z" />
    <glyph glyph-name="Mu" unicode="&#x39c;" horiz-adv-x="599" 
d="M482 0l-14 290q-10 182 -7 264h-4q-26 -130 -54 -234l-82 -316h-50l-78 303q-35 133 -56 247h-3q1 -59 -8 -269l-13 -285h-69l40 674h84l78 -308q40 -154 54 -232h3q14 83 50 232l76 308h86l39 -674h-72z" />
    <glyph glyph-name="Nu" unicode="&#x39d;" horiz-adv-x="465" 
d="M130 0h-69v674h72l124 -316q67 -175 86 -235h2q-9 159 -9 310v241h69v-674h-72l-128 324q-51 124 -81 229h-2q8 -120 8 -320v-233z" />
    <glyph glyph-name="Xi" unicode="&#x39e;" horiz-adv-x="362" 
d="M35 674h292v-67h-292v67zM53 383h254v-66h-254v66zM29 67h304v-67h-304v67z" />
    <glyph glyph-name="Omicron" unicode="&#x39f;" horiz-adv-x="446" 
d="M220 -8h-1q-86 0 -136.5 89.5t-50.5 256.5q0 164 54 254t144 90q86 0 135 -89.5t49 -250.5q0 -179 -53.5 -264.5t-140.5 -85.5zM224 60h1q31 0 53 24.5t34 66.5t17 88t5 100q0 51 -5 96.5t-17 87.5t-34.5 66.5t-53.5 24.5q-41 0 -67.5 -44t-35.5 -102.5t-9 -129.5
q0 -53 5.5 -99.5t17.5 -88t35 -66t54 -24.5z" />
    <glyph glyph-name="Pi" unicode="&#x3a0;" horiz-adv-x="451" 
d="M391 674v-674h-77v604h-177v-604h-77v674h331z" />
    <glyph glyph-name="Rho" unicode="&#x3a1;" horiz-adv-x="399" 
d="M60 0v664q50 13 112 13q100 0 150 -49q49 -49 49 -140q0 -84 -41 -138q-26 -36 -69 -55.5t-90 -19.5q-23 0 -34 1v-276h-77zM137 609v-269q18 -2 31 -2q58 0 92 37.5t34 107.5q0 58 -27 94.5t-87 36.5q-26 0 -43 -5z" />
    <glyph glyph-name="Sigma" unicode="&#x3a3;" horiz-adv-x="407" 
d="M106 71v-4h272v-67h-362v51l173 285l-163 287v51h329v-66h-235v-4l148 -264z" />
    <glyph glyph-name="Tau" unicode="&#x3a4;" horiz-adv-x="354" 
d="M139 0v605h-123v69h323v-69h-123v-605h-77z" />
    <glyph glyph-name="Upsilon" unicode="&#x3a5;" horiz-adv-x="425" 
d="M6 615l16 65q11 -1 35.5 -12.5t43.5 -29.5q43 -39 73.5 -114t37.5 -170h4q17 166 108 267q39 41 83 59l16 -67q-54 -28 -100 -111t-65 -205q-10 -62 -10 -118v-179h-77v179q0 46 -6 116q-35 267 -159 320z" />
    <glyph glyph-name="Phi" unicode="&#x3a6;" horiz-adv-x="504" 
d="M287 37v-50h-71v50q-76 11 -131 85t-55 216q0 137 55.5 215t131.5 87v47h71v-47q80 -9 133 -88.5t53 -209.5q0 -144 -54.5 -220t-132.5 -85zM217 95v487q-45 -7 -77 -72t-32 -175q0 -100 31.5 -163t77.5 -77zM287 582v-487q50 10 79.5 74t29.5 173q0 107 -33.5 170.5
t-75.5 69.5z" />
    <glyph glyph-name="Chi" unicode="&#x3a7;" horiz-adv-x="392" 
d="M378 0h-80l-61 162q-25 67 -42 118h-3l-40 -120l-59 -160h-78l138 344l-134 330h80l61 -156q21 -55 39 -107h2q6 17 18 54t19 56l55 153h78l-132 -328z" />
    <glyph glyph-name="Psi" unicode="&#x3a8;" horiz-adv-x="515" 
d="M472 674v-187q0 -247 -179 -273v-214h-71v214q-90 13 -134.5 75t-44.5 181v204h72v-200q0 -96 26 -144t82 -55v399h69v-399q108 12 108 215v184h72z" />
    <glyph glyph-name="Omega" unicode="&#x3a9;" horiz-adv-x="472" 
d="M340 70v-4h99v-66h-177v52q42 46 66 131t23 176q0 46 -6 88.5t-18.5 81.5t-36 62t-54.5 23q-41 0 -68.5 -41t-37.5 -95t-10 -116q0 -85 25.5 -176t63.5 -134v-52h-177v66h99v4q-40 55 -65.5 134.5t-25.5 168.5q0 143 56.5 226t145.5 83q87 0 138 -82.5t51 -221.5
q0 -93 -26 -174.5t-65 -133.5z" />
    <glyph glyph-name="Omega" unicode="&#x2126;" horiz-adv-x="472" 
d="M340 70v-4h99v-66h-177v52q42 46 66 131t23 176q0 46 -6 88.5t-18.5 81.5t-36 62t-54.5 23q-41 0 -68.5 -41t-37.5 -95t-10 -116q0 -85 25.5 -176t63.5 -134v-52h-177v66h99v4q-40 55 -65.5 134.5t-25.5 168.5q0 143 56.5 226t145.5 83q87 0 138 -82.5t51 -221.5
q0 -93 -26 -174.5t-65 -133.5z" />
    <glyph glyph-name="Iotadieresis" unicode="&#x3aa;" horiz-adv-x="199" 
d="M23 710h-1q-18 0 -30.5 12.5t-12.5 31.5t13 31.5t31 12.5t29.5 -12.5t11.5 -31.5t-11.5 -31.5t-29.5 -12.5zM177 710h-1q-18 0 -30.5 12.5t-12.5 31.5t13 31.5t31 12.5t30 -12.5t12 -31.5t-12 -31.5t-30 -12.5zM60 674h77v-674h-77v674z" />
    <glyph glyph-name="Upsilondieresis" unicode="&#x3ab;" horiz-adv-x="425" 
d="M141 697h-1q-18 0 -30.5 12.5t-12.5 31.5t13 31.5t31 12.5t30 -12.5t12 -31.5t-12 -31.5t-30 -12.5zM296 697h-1q-18 0 -30.5 12.5t-12.5 31.5t13 31.5t31 12.5t30 -12.5t12 -31.5t-12 -31.5t-30 -12.5zM6 615l16 65q11 -1 35.5 -12.5t43.5 -29.5q43 -39 73.5 -114
t37.5 -170h4q17 166 108 267q39 41 83 59l16 -67q-54 -28 -100 -111t-65 -205q-10 -62 -10 -118v-179h-77v179q0 46 -6 116q-35 267 -159 320z" />
    <glyph glyph-name="alphatonos" unicode="&#x3ac;" horiz-adv-x="397" 
d="M208 674h68l-56 -135h-45zM291 484h58q-4 -24 -7.5 -139.5t-2.5 -240.5q0 -53 32 -53l-8 -57q-7 -2 -19 -2q-59 0 -64 79h-4q-12 -32 -38 -55.5t-65 -23.5q-63 0 -101.5 64t-38.5 175q0 121 47 191t107 70q64 0 90 -72h4q4 37 10 64zM110 233v-1q0 -72 21.5 -124
t56.5 -52q25 0 45.5 30t28.5 77q4 37 4 81q0 49 -2 73q-2 47 -21.5 79t-46.5 32q-39 0 -62.5 -57t-23.5 -138z" />
    <glyph glyph-name="epsilontonos" unicode="&#x3ad;" horiz-adv-x="324" 
d="M186 674h68l-55 -135h-45zM133 259v4q-36 11 -57 37.5t-21 66.5q0 52 40.5 88.5t109.5 36.5q60 0 89 -22l-15 -55q-30 16 -70 16q-38 0 -58.5 -20.5t-20.5 -49.5q0 -38 31.5 -55.5t77.5 -17.5h15v-57h-20q-54 -1 -88.5 -23t-34.5 -67q0 -41 27 -64t68 -23q59 0 89 19
l11 -58q-41 -23 -115 -23q-68 0 -113.5 35.5t-45.5 107.5q0 49 30.5 83t70.5 41z" />
    <glyph glyph-name="etatonos" unicode="&#x3ae;" horiz-adv-x="405" 
d="M207 674h68l-55 -135h-45zM121 426h2q36 66 111 66q53 0 85 -41t32 -126v-363q0 -108 7 -154h-70q-14 37 -14 140v364q0 115 -67 115q-25 0 -45.5 -20.5t-26.5 -58.5q-4 -16 -4 -43v-305h-77v359q0 83 -13 125h67q10 -23 13 -58z" />
    <glyph glyph-name="iotatonos" unicode="&#x3af;" horiz-adv-x="188" 
d="M97 676h71l-55 -135h-48zM131 484v-383q0 -28 8 -38.5t29 -10.5l-7 -57q-13 -3 -29 -3q-35 0 -56.5 21.5t-21.5 82.5v388h77z" />
    <glyph glyph-name="upsilondieresistonos" unicode="&#x3b0;" horiz-adv-x="377" 
d="M238 484h72q31 -74 31 -193q0 -299 -161 -299q-61 0 -96.5 39t-35.5 109v183q0 131 -8 161h74q11 -17 11 -98v-237q0 -45 17.5 -68.5t43.5 -23.5q80 0 80 217q0 141 -28 210zM164 682h65l-36 -145h-41zM85 560h-1q-18 0 -30 11.5t-12 29.5t12.5 29t30.5 11
q15 0 26.5 -11.5t11.5 -28.5q0 -18 -11.5 -29.5t-26.5 -11.5zM285 560h-1q-16 0 -28 11.5t-12 29.5q0 17 12.5 28.5t28.5 11.5q17 0 28.5 -11t11.5 -29t-11.5 -29.5t-28.5 -11.5z" />
    <glyph glyph-name="alpha" unicode="&#x3b1;" horiz-adv-x="397" 
d="M291 484h58q-4 -24 -7.5 -139.5t-2.5 -240.5q0 -53 32 -53l-8 -57q-7 -2 -19 -2q-59 0 -64 79h-4q-12 -32 -38 -55.5t-65 -23.5q-63 0 -101.5 64t-38.5 175q0 121 47 191t107 70q64 0 90 -72h4q4 37 10 64zM110 233v-1q0 -72 21.5 -124t56.5 -52q25 0 45.5 30t28.5 77
q4 37 4 81q0 49 -2 73q-2 47 -21.5 79t-46.5 32q-39 0 -62.5 -57t-23.5 -138z" />
    <glyph glyph-name="beta" unicode="&#x3b2;" horiz-adv-x="404" 
d="M130 28h-2v-66q0 -104 9 -154h-70q-15 40 -15 139v518q0 134 52 192q37 43 99 43q65 0 99 -49.5t34 -118.5q0 -110 -79 -154v-4q47 -15 80.5 -59.5t33.5 -125.5q0 -91 -43.5 -144t-107.5 -53q-57 0 -90 36zM128 481v-376q29 -49 79 -49q40 0 63.5 38.5t23.5 95.5
q0 64 -28.5 103t-75.5 44q-6 1 -15 1v60q3 0 15 2q73 22 73 128q0 39 -16 73.5t-47 34.5q-72 0 -72 -155z" />
    <glyph glyph-name="gamma" unicode="&#x3b3;" horiz-adv-x="339" 
d="M199 -192h-75q4 114 -0.5 184.5t-22.5 146.5q-49 209 -106 345h81q65 -170 95 -372h3q71 205 70 332v40h70q2 -14 2 -33q0 -165 -114 -413q-6 -14 -6 -23q3 -63 3 -207z" />
    <glyph glyph-name="delta" unicode="&#x3b4;" horiz-adv-x="390" 
d="M337 658l-22 -51q-48 32 -92 32q-24 0 -37 -11.5t-13 -28.5q0 -26 45 -83l59 -75q79 -102 79 -210q0 -111 -46 -175t-117 -64q-69 0 -115 62t-46 168q0 84 38 146.5t92 98.5v4l-12 16q-54 68 -54 112q0 39 32 70t92 31q71 0 117 -42zM224 391l-24 32q-90 -68 -90 -202
q0 -80 26 -124t60 -44q39 0 61 46t22 121q0 101 -55 171z" />
    <glyph glyph-name="epsilon" unicode="&#x3b5;" horiz-adv-x="324" 
d="M133 260v4q-35 10 -56.5 37t-21.5 66q0 52 40.5 88.5t109.5 36.5q60 0 89 -22l-15 -55q-30 16 -70 16q-38 0 -58.5 -20.5t-20.5 -49.5q0 -38 31.5 -55.5t77.5 -17.5h15v-57h-20q-54 -1 -88.5 -23t-34.5 -67q0 -41 27 -64t68 -23q58 0 89 20l11 -59q-41 -23 -115 -23
q-68 0 -113.5 35.5t-45.5 107.5q0 49 30.5 83.5t70.5 41.5z" />
    <glyph glyph-name="zeta" unicode="&#x3b6;" horiz-adv-x="314" 
d="M250 -129l-54 15q31 53 36 102q-46 11 -86 30q-113 53 -113 199q0 106 53 218.5t135 188.5v3h-46q-66 0 -90 8l9 55q26 -2 100 -2h110l14 -54q-79 -53 -143 -170.5t-64 -227.5q0 -73 23.5 -110.5t68.5 -57.5q37 -17 97 -27q8 -2 8 -12q0 -40 -18 -85.5t-40 -72.5z" />
    <glyph glyph-name="eta" unicode="&#x3b7;" horiz-adv-x="405" 
d="M121 426h2q36 66 111 66q53 0 85 -41t32 -126v-363q0 -108 7 -154h-70q-14 37 -14 140v364q0 115 -67 115q-25 0 -45.5 -20.5t-26.5 -58.5q-4 -16 -4 -43v-305h-77v359q0 83 -13 125h67q10 -23 13 -58z" />
    <glyph glyph-name="theta" unicode="&#x3b8;" horiz-adv-x="382" 
d="M189 -8h-1q-156 0 -156 361q0 180 47.5 263.5t114.5 83.5q70 0 113 -82.5t43 -264.5q0 -87 -9 -152.5t-24 -104.5t-36.5 -63t-43.5 -32.5t-48 -8.5zM107 387h168q0 115 -22.5 184t-62.5 69q-36 0 -59.5 -70t-23.5 -183zM275 324h-168q0 -132 22.5 -202t62.5 -70
q83 0 83 272z" />
    <glyph glyph-name="iota" unicode="&#x3b9;" horiz-adv-x="188" 
d="M131 484v-383q0 -28 8 -38.5t29 -10.5l-7 -57q-13 -3 -29 -3q-35 0 -56.5 21.5t-21.5 82.5v388h77z" />
    <glyph glyph-name="kappa" unicode="&#x3ba;" horiz-adv-x="370" 
d="M201 262v-3q16 -6 30 -20.5t29 -41t22.5 -40.5t22.5 -47l54 -110h-85l-51 111q-49 110 -84 110h-8v-221h-77v369q0 82 -10 115h74q13 -18 13 -83v-134h3q28 42 77.5 120.5t61.5 96.5h83v-3q-62 -88 -155 -219z" />
    <glyph glyph-name="lambda" unicode="&#x3bb;" horiz-adv-x="337" 
d="M251 0l-59 260q-4 17 -11 53.5t-12 60.5h-3q-10 -66 -22 -112l-61 -262h-76l121 452q3 12 3 22q0 8 -4 28q-34 129 -93 129q-5 0 -11 -1l8 63q12 2 23 2q59 0 91.5 -51t58.5 -154l124 -490h-77z" />
    <glyph glyph-name="uni03BC" unicode="&#x3bc;" horiz-adv-x="399" 
d="M281 49h-2q-10 -18 -33.5 -35t-51.5 -17q-47 0 -67 35v-70q0 -104 9 -154h-70q-13 39 -13 146v530h77v-320q0 -108 64 -108q31 0 48.5 21t21.5 43q4 17 4 44v320h77v-380q0 -28 6.5 -41.5t24.5 -12.5l-8 -55q-10 -3 -26 -3q-49 0 -61 57z" />
    <glyph glyph-name="nu" unicode="&#x3bd;" horiz-adv-x="333" 
d="M6 484h78l55 -272q4 -20 22 -122h3q75 236 75 361v10v13v10h70q2 -16 2 -31q0 -138 -124 -453h-69z" />
    <glyph glyph-name="xi" unicode="&#x3be;" horiz-adv-x="328" 
d="M278 414v-60h-17q-66 -2 -108 -41t-42 -103q0 -105 107 -144q45 -16 95 -26q10 -1 10 -12q0 -38 -18 -84.5t-40 -73.5l-55 16q31 53 36 102q-99 24 -156 71.5t-57 140.5q0 68 35 116.5t94 71.5v5q-42 19 -66.5 57t-24.5 84q0 73 45.5 119.5t119.5 46.5q49 0 80 -19
l-14 -57q-28 14 -63 14q-46 0 -68.5 -32.5t-22.5 -71.5q0 -52 32.5 -83.5t81.5 -35.5q5 -1 16 -1z" />
    <glyph glyph-name="omicron" unicode="&#x3bf;" horiz-adv-x="383" 
d="M191 -8h-1q-69 0 -113 63.5t-44 185.5q0 125 47 188t115 63q69 0 112.5 -63.5t43.5 -185.5q0 -129 -47.5 -190t-112.5 -61zM193 53h1q31 0 50 33t24.5 72t5.5 84t-5.5 83.5t-25 72t-51.5 33.5q-24 0 -41.5 -18.5t-25.5 -49t-11.5 -60t-3.5 -61.5q0 -34 3.5 -64t12 -60
t25.5 -47.5t42 -17.5z" />
    <glyph glyph-name="pi" unicode="&#x3c0;" horiz-adv-x="400" 
d="M380 420h-47v-302q0 -81 10 -118h-72q-14 26 -14 116v304h-99q-1 -105 -14.5 -228.5t-35.5 -191.5h-71q22 73 34.5 193.5t12.5 226.5q-34 0 -61 -5l-11 47q22 22 116 22h259z" />
    <glyph glyph-name="rho" unicode="&#x3c1;" horiz-adv-x="395" 
d="M129 39h-2v-77q0 -96 7 -154h-72q-12 36 -12 138v298q0 140 53 198q41 50 102 50q75 0 116.5 -65t41.5 -184q0 -125 -44 -188t-108 -63q-28 0 -49.5 13.5t-32.5 33.5zM127 264v-96q0 -23 4 -39q9 -41 28 -57t39 -16q45 0 66.5 54t21.5 135q0 79 -20.5 129.5t-62.5 50.5
q-33 0 -54.5 -39t-21.5 -122z" />
    <glyph glyph-name="uni03C2" unicode="&#x3c2;" horiz-adv-x="306" 
d="M293 479l-14 -61q-22 8 -44 8q-60 0 -92 -55.5t-32 -129.5q0 -129 89 -173q22 -10 84 -29q7 -3 7 -9q0 -41 -17.5 -87t-39.5 -73l-54 16q32 52 37 101q-42 13 -70 27q-52 26 -83 82t-31 137q0 109 56 184t146 75q38 0 58 -13z" />
    <glyph glyph-name="sigma" unicode="&#x3c3;" horiz-adv-x="383" 
d="M286 436l-1 -3q61 -60 61 -191q0 -128 -47.5 -189t-110.5 -61q-68 0 -111.5 63.5t-43.5 185.5q0 125 47 188t117 63h38h37h99l-4 -60q-22 -1 -81 4zM191 53h1q23 0 39 18t23.5 48.5t11 60t3.5 62.5q0 71 -18.5 129.5t-60.5 58.5q-24 0 -40.5 -18.5t-24.5 -48.5
t-11.5 -59.5t-3.5 -61.5q0 -47 6 -86t25 -71t50 -32z" />
    <glyph glyph-name="tau" unicode="&#x3c4;" horiz-adv-x="304" 
d="M243 54l-3 -57q-15 -5 -36 -5q-93 0 -93 137v291h-42q-35 0 -57 -10l-12 50q19 24 88 24h212l-9 -64h-103v-294q0 -73 39 -73q11 0 16 1z" />
    <glyph glyph-name="upsilon" unicode="&#x3c5;" horiz-adv-x="377" 
d="M238 484h72q31 -74 31 -193q0 -299 -161 -299q-61 0 -96.5 39t-35.5 109v183q0 131 -8 161h74q11 -17 11 -98v-237q0 -45 17.5 -68.5t43.5 -23.5q80 0 80 217q0 141 -28 210z" />
    <glyph glyph-name="phi" unicode="&#x3c6;" horiz-adv-x="491" 
d="M144 487l40 -37q-74 -79 -74 -204q0 -74 26 -126t74 -64v303q0 66 27 96.5t68 30.5q61 0 107 -63.5t46 -170.5q0 -115 -52 -180t-124 -74v-190h-72v190q-30 4 -58 18t-56.5 41t-45.5 75t-17 111q0 88 34.5 150t76.5 94zM281 371v-316q50 8 75.5 62.5t25.5 131.5t-24 127
t-47 50q-30 0 -30 -55z" />
    <glyph glyph-name="chi" unicode="&#x3c7;" horiz-adv-x="339" 
d="M11 484h78l83 -257h4q16 61 28 99l52 158h74l-121 -327l119 -342l-71 -18l-95 290h-2q-11 -48 -33 -122l-54 -168l-68 17l122 346z" />
    <glyph glyph-name="psi" unicode="&#x3c8;" horiz-adv-x="487" 
d="M210 -192v184q-33 4 -58 14.5t-51 33.5t-40.5 68t-14.5 110v150q0 89 -5 116h68q8 -22 8 -98v-151q0 -96 24.5 -137.5t69.5 -48.5v536h71v-536q50 5 73.5 73t23.5 172q0 127 -21 190h66q27 -66 27 -180q0 -296 -168 -312v-184h-73z" />
    <glyph glyph-name="omega" unicode="&#x3c9;" horiz-adv-x="521" 
d="M296 333l-1 -191q0 -29 13.5 -57t37.5 -28q28 0 46.5 47.5t18.5 136.5q0 149 -67 241v2h70q29 -29 51.5 -96t22.5 -147q0 -117 -38.5 -183t-100.5 -66q-59 0 -87 70h-3q-25 -70 -95 -70q-55 0 -93.5 60.5t-38.5 179.5q0 84 23.5 153t51.5 99h69v-2q-67 -90 -67 -245
q0 -89 18 -134.5t47 -45.5q25 0 38 27.5t13 58.5l-1 190h72z" />
    <glyph glyph-name="iotadieresis" unicode="&#x3ca;" horiz-adv-x="188" 
d="M16 558h-1q-18 0 -31 13t-13 32t13 32t32 13q18 0 30.5 -12.5t12.5 -32.5t-12 -32.5t-31 -12.5zM170 558h-1q-18 0 -31 13t-13 32t13 32t32 13q18 0 30.5 -12.5t12.5 -32.5t-12 -32.5t-31 -12.5zM131 484v-383q0 -28 8 -38.5t29 -10.5l-7 -57q-13 -3 -29 -3
q-35 0 -56.5 21.5t-21.5 82.5v388h77z" />
    <glyph glyph-name="upsilondieresis" unicode="&#x3cb;" horiz-adv-x="377" 
d="M104 558h-1q-19 0 -32 13t-13 32t13 32t33 13q18 0 30.5 -12.5t12.5 -32.5t-12 -32.5t-31 -12.5zM258 558h-1q-18 0 -31 13t-13 32t13 32t32 13q18 0 31 -12.5t13 -32.5q0 -19 -12.5 -32t-31.5 -13zM237 484h73q31 -74 31 -193q0 -299 -161 -299q-61 0 -96.5 39
t-35.5 109v183q0 131 -8 161h74q11 -17 11 -98v-237q0 -45 17.5 -68.5t43.5 -23.5q79 0 79 217q0 141 -28 210z" />
    <glyph glyph-name="omicrontonos" unicode="&#x3cc;" horiz-adv-x="383" 
d="M195 674h68l-56 -135h-45zM191 -8h-1q-69 0 -113 63.5t-44 185.5q0 125 47 188t115 63q69 0 112.5 -63.5t43.5 -185.5q0 -129 -47.5 -190t-112.5 -61zM193 53h1q31 0 50 33t24.5 72t5.5 84t-5.5 83.5t-25 72t-51.5 33.5q-24 0 -41.5 -18.5t-25.5 -49t-11.5 -60
t-3.5 -61.5q0 -34 3.5 -64t12 -60t25.5 -47.5t42 -17.5z" />
    <glyph glyph-name="upsilontonos" unicode="&#x3cd;" horiz-adv-x="377" 
d="M188 676h71l-56 -135h-48zM238 484h72q31 -74 31 -193q0 -299 -161 -299q-61 0 -96.5 39t-35.5 109v183q0 131 -8 161h74q11 -17 11 -98v-237q0 -45 17.5 -68.5t43.5 -23.5q80 0 80 217q0 141 -28 210z" />
    <glyph glyph-name="omegatonos" unicode="&#x3ce;" horiz-adv-x="521" 
d="M269 674h68l-56 -135h-44zM296 333l-1 -191q0 -29 13.5 -57t37.5 -28q28 0 46.5 47.5t18.5 136.5q0 149 -67 241v2h70q29 -29 51.5 -96t22.5 -147q0 -117 -38.5 -183t-100.5 -66q-59 0 -87 70h-3q-11 -31 -35.5 -50.5t-58.5 -19.5q-55 0 -93.5 60.5t-38.5 179.5
q0 84 23.5 153t51.5 99h69v-2q-67 -87 -67 -245q0 -89 18 -134.5t47 -45.5q24 0 37 27.5t13 58.5l-1 190h72z" />
    <glyph glyph-name="afii10023" unicode="&#x401;" horiz-adv-x="354" 
d="M306 385v-65h-169v-253h192v-67h-269v674h257v-67h-180v-222h169zM109 725h-1q-18 0 -30 13t-12 34q0 19 12.5 32.5t30.5 13.5q19 0 31 -13t12 -33q0 -21 -12 -34t-31 -13zM270 725h-1q-18 0 -30 13t-12 34q0 19 12.5 32.5t30.5 13.5q19 0 31 -13t12 -33q0 -21 -12 -34
t-31 -13z" />
    <glyph glyph-name="afii10051" unicode="&#x402;" horiz-adv-x="486" 
d="M15 674h357v-70h-158v-193h2q37 24 80 24q85 0 130 -91q32 -67 32 -178q0 -133 -58 -211q-46 -64 -110 -84l-20 64q46 19 76 69q33 56 33 166q0 92 -25 143q-28 55 -81 55q-31 0 -59 -19v-349h-77v604h-122v70z" />
    <glyph glyph-name="afii10052" unicode="&#x403;" horiz-adv-x="339" 
d="M60 674h264v-67h-187v-607h-77v674zM225 818h91l-124 -108h-61z" />
    <glyph glyph-name="afii10053" unicode="&#x404;" horiz-adv-x="384" 
d="M355 661l-17 -65q-27 16 -63 16q-44 0 -77.5 -23.5t-51.5 -61t-26.5 -75.5t-9.5 -75h204v-67h-203q2 -57 15 -109t51 -95.5t96 -43.5q39 0 80 15l13 -62q-44 -22 -98 -22q-117 0 -176.5 97t-59.5 248q0 62 12.5 119t39 109t75 83.5t113.5 31.5q43 0 83 -20z" />
    <glyph glyph-name="afii10054" unicode="&#x405;" horiz-adv-x="361" 
d="M28 24l17 65q44 -27 97 -27q52 0 82 31t30 83q0 43 -22 74.5t-67 65.5q-127 89 -127 187q0 77 49.5 127t128.5 50q59 0 95 -25l-19 -66q-33 23 -80 23q-46 0 -71.5 -29t-25.5 -67q0 -46 21.5 -73t77.5 -66q117 -82 117 -194q0 -85 -53.5 -137t-135.5 -52q-33 0 -66 9
t-48 21z" />
    <glyph glyph-name="afii10055" unicode="&#x406;" horiz-adv-x="199" 
d="M60 674h77v-674h-77v674z" />
    <glyph glyph-name="afii10056" unicode="&#x407;" horiz-adv-x="199" 
d="M60 674h77v-674h-77v674zM19 725h-1q-18 0 -30 13t-12 34q0 19 12.5 32.5t30.5 13.5q19 0 31 -13t12 -33q0 -21 -12 -34t-31 -13zM180 725h-1q-18 0 -30 13t-12 34q0 19 12.5 32.5t30.5 13.5q19 0 31 -13t12 -33q0 -21 -12 -34t-31 -13z" />
    <glyph glyph-name="afii10057" unicode="&#x408;" horiz-adv-x="265" 
d="M134 189v485h77v-484q0 -108 -40.5 -153t-117.5 -45q-32 0 -50 7l7 65q13 -4 37 -4q44 0 65.5 27t21.5 102z" />
    <glyph glyph-name="afii10058" unicode="&#x409;" horiz-adv-x="635" 
d="M80 674h274v-268q24 3 51 3q91 0 146 -54.5t55 -145.5q0 -90 -49 -144q-58 -69 -179 -69q-63 0 -100 7v604h-127v-231q0 -154 -15.5 -241t-66.5 -123q-26 -20 -61 -20l-15 63q24 8 36 20q28 26 39.5 93.5t11.5 198.5v307zM354 342v-281q20 -3 39 -3q63 0 98 41t35 106
q0 63 -36.5 101.5t-97.5 38.5q-17 0 -38 -3z" />
    <glyph glyph-name="afii10059" unicode="&#x40a;" horiz-adv-x="669" 
d="M60 674h77v-280h173v280h77v-272q24 3 51 3q92 0 147 -53t55 -144q0 -89 -49 -143q-60 -69 -180 -69q-64 0 -101 7v323h-173v-326h-77v674zM387 338v-277q20 -3 39 -3q63 0 98.5 41t35.5 106q0 63 -36.5 99.5t-98.5 36.5q-19 0 -38 -3z" />
    <glyph glyph-name="afii10060" unicode="&#x40b;" horiz-adv-x="501" 
d="M16 674h346v-70h-150v-206h2q51 37 104 37q62 0 94 -43q36 -46 36 -128v-264h-76v256q0 61 -21 87q-19 27 -58 27q-42 0 -81 -31v-339h-77v604h-119v70z" />
    <glyph glyph-name="afii10061" unicode="&#x40c;" horiz-adv-x="391" 
d="M61 674h75v-306h14l143 306h84l-165 -315q57 -12 84.5 -55.5t42.5 -115.5q4 -17 10 -47.5t10 -50t11 -45t14 -45.5h-78q-9 24 -39 168q-15 72 -39.5 107.5t-79.5 35.5h-12v-311h-75v674zM248 813h91l-124 -108h-61z" />
    <glyph glyph-name="afii10062" unicode="&#x40e;" horiz-adv-x="369" 
d="M5 674h83l80 -276q12 -38 31 -117h3q5 19 13.5 63t11.5 56l60 274h78l-81 -302q-2 -7 -12.5 -47.5t-16.5 -61.5t-17 -56.5t-23 -65t-25 -55.5q-23 -45 -56.5 -71t-70.5 -26q-23 0 -36 5l4 62q10 -2 21 -2q36 0 63.5 39.5t41.5 86.5q6 17 -1 39zM75 791h56q10 -56 57 -56
q49 0 56 56h57q-13 -97 -114 -97q-103 0 -112 97z" />
    <glyph glyph-name="afii10145" unicode="&#x40f;" horiz-adv-x="458" 
d="M60 674h77v-607h184v607h77v-674h-133l-5 -142h-64l-4 142h-132v674z" />
    <glyph glyph-name="afii10017" unicode="&#x410;" horiz-adv-x="435" 
d="M291 202h-150l-44 -202h-75l154 674h85l150 -674h-76zM152 264h128l-35 171q-10 49 -27 154h-3q-15 -94 -28 -155z" />
    <glyph glyph-name="afii10018" unicode="&#x411;" horiz-adv-x="418" 
d="M61 674h284v-67h-208v-202q24 4 51 4q89 0 144 -53q57 -54 57 -147q0 -91 -49 -146q-58 -67 -179 -67q-63 0 -100 7v671zM137 342v-281q19 -3 39 -3q65 0 103 46q30 41 30 100q0 60 -35 100q-38 41 -99 41q-17 0 -38 -3z" />
    <glyph glyph-name="afii10019" unicode="&#x412;" horiz-adv-x="416" 
d="M60 3v661q52 13 113 13q99 0 149 -46q44 -42 44 -116q0 -52 -27.5 -91.5t-76.5 -58.5v-3q59 -15 92 -60.5t33 -111.5q0 -80 -48 -133q-54 -61 -178 -61q-64 0 -101 7zM137 612v-225h35q48 0 82.5 34t34.5 85q0 111 -111 111q-26 0 -41 -5zM137 329v-269q13 -3 39 -3
q60 0 95.5 35t35.5 99q0 66 -39 101.5t-97 36.5h-34z" />
    <glyph glyph-name="afii10020" unicode="&#x413;" horiz-adv-x="339" 
d="M60 674h264v-67h-187v-607h-77v674z" />
    <glyph glyph-name="afii10021" unicode="&#x414;" horiz-adv-x="474" 
d="M130 674h272v-608l44 -1l-4 -204h-60l-5 139h-298l-4 -139h-61l-4 204l45 1q37 90 55 182q20 109 20 274v152zM201 607v-102q0 -154 -19 -268q-14 -81 -48 -170h191v540h-124z" />
    <glyph glyph-name="afii10022" unicode="&#x415;" horiz-adv-x="354" 
d="M306 385v-65h-169v-253h192v-67h-269v674h257v-67h-180v-222h169z" />
    <glyph glyph-name="afii10024" unicode="&#x416;" horiz-adv-x="589" 
d="M13 674h85l146 -307h14v307h72v-307h15l145 307h85l-173 -314q59 -10 89 -57.5t45 -121.5q30 -142 45 -181h-76q-10 22 -39 162q-8 34 -15.5 56t-21 46t-36 35.5t-52.5 11.5h-11v-311h-72v311h-10q-31 0 -53.5 -11.5t-36.5 -35.5t-21.5 -46t-15.5 -56q-3 -12 -10 -49.5
t-14 -66.5t-15 -46h-74q13 36 44 181q33 161 134 179z" />
    <glyph glyph-name="afii10025" unicode="&#x417;" horiz-adv-x="381" 
d="M48 581l-19 58q56 43 137 43q78 0 121.5 -45t43.5 -117q0 -55 -33 -99.5t-85 -60.5v-2q64 -10 101.5 -57t37.5 -116q0 -89 -56 -141t-147 -52q-79 0 -131 33l19 64q49 -31 107 -31q61 0 95 35t34 92q0 65 -43 101t-110 36h-21v61h15q54 0 96.5 36.5t42.5 89.5
q0 49 -28.5 77.5t-77.5 28.5q-47 0 -99 -34z" />
    <glyph glyph-name="afii10026" unicode="&#x418;" horiz-adv-x="464" 
d="M60 674h70v-241q0 -150 -9 -309h2q14 46 87 235l121 315h72v-674h-69v233q0 198 8 318h-2q-16 -56 -81 -226l-126 -325h-73v674z" />
    <glyph glyph-name="afii10027" unicode="&#x419;" horiz-adv-x="464" 
d="M60 674h70v-241q0 -150 -9 -309h2q14 46 87 235l121 315h72v-674h-69v233q0 198 8 318h-2q-16 -56 -81 -226l-126 -325h-73v674zM119 796h56q10 -56 57 -56q49 0 56 56h57q-13 -97 -114 -97q-103 0 -112 97z" />
    <glyph glyph-name="afii10028" unicode="&#x41a;" horiz-adv-x="391" 
d="M61 674h75v-306h14l143 306h84l-165 -315q57 -12 84.5 -55.5t42.5 -115.5q4 -17 10 -47.5t10 -50t11 -45t14 -45.5h-78q-9 24 -39 168q-15 72 -39.5 107.5t-79.5 35.5h-12v-311h-75v674z" />
    <glyph glyph-name="afii10029" unicode="&#x41b;" horiz-adv-x="432" 
d="M81 674h290v-674h-77v607h-142v-230q0 -157 -15 -242.5t-67 -121.5q-27 -21 -61 -21l-16 65q20 3 36 17q30 26 41 94t11 198v308z" />
    <glyph glyph-name="afii10030" unicode="&#x41c;" horiz-adv-x="599" 
d="M482 0l-14 290q-10 182 -7 264h-4q-26 -130 -54 -234l-82 -316h-50l-78 303q-35 133 -56 247h-3q1 -59 -8 -269l-13 -285h-69l40 674h84l78 -308q40 -154 54 -232h3q14 83 50 232l76 308h86l39 -674h-72z" />
    <glyph glyph-name="afii10031" unicode="&#x41d;" horiz-adv-x="463" 
d="M60 674h77v-289h189v289h77v-674h-77v315h-189v-315h-77v674z" />
    <glyph glyph-name="afii10032" unicode="&#x41e;" horiz-adv-x="446" 
d="M220 -8h-1q-86 0 -136.5 89.5t-50.5 256.5q0 164 54 254t144 90q86 0 135 -89.5t49 -250.5q0 -179 -53.5 -264.5t-140.5 -85.5zM224 60h1q31 0 53 24.5t34 66.5t17 88t5 100q0 51 -5 96.5t-17 87.5t-34.5 66.5t-53.5 24.5q-41 0 -67.5 -44t-35.5 -102.5t-9 -129.5
q0 -53 5.5 -99.5t17.5 -88t35 -66t54 -24.5z" />
    <glyph glyph-name="afii10033" unicode="&#x41f;" horiz-adv-x="458" 
d="M60 674h338v-674h-77v607h-184v-607h-77v674z" />
    <glyph glyph-name="afii10034" unicode="&#x420;" horiz-adv-x="399" 
d="M60 0v664q50 13 112 13q100 0 150 -49q49 -49 49 -140q0 -84 -41 -138q-26 -36 -69 -55.5t-90 -19.5q-23 0 -34 1v-276h-77zM137 609v-269q18 -2 31 -2q58 0 92 37.5t34 107.5q0 58 -27 94.5t-87 36.5q-26 0 -43 -5z" />
    <glyph glyph-name="afii10035" unicode="&#x421;" horiz-adv-x="373" 
d="M342 76l13 -64q-34 -18 -97 -18q-103 0 -164.5 84t-61.5 250q0 95 22 166.5t58 110.5t76 57t83 18q58 0 83 -17l-17 -65q-32 14 -67 14q-63 0 -110 -67t-47 -209q0 -144 44.5 -209t114.5 -65q38 0 70 14z" />
    <glyph glyph-name="afii10036" unicode="&#x422;" horiz-adv-x="354" 
d="M139 0v605h-123v69h323v-69h-123v-605h-77z" />
    <glyph glyph-name="afii10037" unicode="&#x423;" horiz-adv-x="369" 
d="M5 674h83l80 -276q12 -38 31 -117h3q5 19 13.5 63t11.5 56l60 274h78l-81 -302q-2 -7 -12.5 -47.5t-16.5 -61.5t-17 -56.5t-23 -65t-25 -55.5q-23 -45 -56.5 -71t-70.5 -26q-23 0 -36 5l4 62q10 -2 21 -2q36 0 63.5 39.5t41.5 86.5q6 17 -1 39z" />
    <glyph glyph-name="afii10038" unicode="&#x424;" horiz-adv-x="507" 
d="M219 693h71v-53q83 -8 134.5 -82.5t51.5 -216.5q0 -82 -16 -141.5t-43.5 -92.5t-58.5 -49.5t-69 -20.5v-56h-71v56q-186 24 -186 301q0 148 54.5 220.5t132.5 81.5v53zM219 94v489q-47 -7 -78 -66t-31 -182q0 -113 30.5 -172t78.5 -69zM289 583v-489q109 18 109 248
q0 119 -32.5 177.5t-76.5 63.5z" />
    <glyph glyph-name="afii10039" unicode="&#x425;" horiz-adv-x="392" 
d="M378 0h-80l-61 162q-25 67 -42 118h-3l-40 -120l-58 -160h-79l138 344l-134 330h80l61 -156q21 -55 39 -107h2q16 47 37 110l55 153h78l-132 -328z" />
    <glyph glyph-name="afii10040" unicode="&#x426;" horiz-adv-x="470" 
d="M60 674h77v-607h183v607h77v-608l45 -1l-4 -204h-61l-5 139h-312v674z" />
    <glyph glyph-name="afii10041" unicode="&#x427;" horiz-adv-x="436" 
d="M54 674h76v-230q0 -116 92 -116q42 0 78 21v325h76v-681h-76v294h-3q-51 -24 -101 -24q-68 0 -105 41.5t-37 124.5v245z" />
    <glyph glyph-name="afii10042" unicode="&#x428;" horiz-adv-x="632" 
d="M61 674h75v-607h143v607h75v-607h143v607h75v-674h-511v674z" />
    <glyph glyph-name="afii10043" unicode="&#x429;" horiz-adv-x="644" 
d="M61 674h75v-607h143v607h75v-607h143v607h75v-608l45 -1l-4 -204h-61l-4 139h-487v674z" />
    <glyph glyph-name="afii10044" unicode="&#x42a;" horiz-adv-x="512" 
d="M15 674h217v-268q24 3 51 3q92 0 147 -54.5t55 -145.5t-49 -146q-58 -67 -180 -67q-63 0 -100 7v605h-141v66zM232 342v-281q20 -3 39 -3q63 0 98.5 41t35.5 105q0 63 -36.5 102t-98.5 39q-17 0 -38 -3z" />
    <glyph glyph-name="afii10045" unicode="&#x42b;" horiz-adv-x="586" 
d="M61 674h76v-269q21 4 50 4q90 0 144.5 -54.5t54.5 -144.5q0 -89 -48 -145q-61 -69 -181 -69q-59 0 -96 7v671zM137 342v-281q19 -3 37 -3q61 0 96.5 41t35.5 105q0 63 -36 102t-95 39q-21 0 -38 -3zM448 675h77v-675h-77v675z" />
    <glyph glyph-name="afii10046" unicode="&#x42c;" horiz-adv-x="417" 
d="M61 674h76v-268q21 3 51 3q92 0 146.5 -54t54.5 -146q0 -88 -48 -144q-61 -69 -181 -69q-62 0 -99 7v671zM137 342v-281q19 -3 37 -3q63 0 99 41t36 106q0 62 -36.5 101t-97.5 39q-21 0 -38 -3z" />
    <glyph glyph-name="afii10047" unicode="&#x42d;" horiz-adv-x="387" 
d="M73 311v69h204q0 38 -8 75.5t-24 74.5t-47 60t-72 23q-39 0 -73 -16l-20 62q44 22 96 22q54 0 95.5 -21.5t65.5 -55t39.5 -80.5t20.5 -91t5 -93q0 -91 -23.5 -167t-79 -128t-136.5 -52q-53 0 -99 22l18 64q36 -17 77 -17q45 0 78.5 24.5t51 64.5t25.5 79.5t9 80.5h-203z
" />
    <glyph glyph-name="afii10048" unicode="&#x42e;" horiz-adv-x="604" 
d="M60 674h76v-288h74q8 143 59 219.5t128 76.5q82 0 129 -90t47 -250q0 -179 -51.5 -264.5t-134.5 -85.5q-78 0 -126 83t-51 243h-74v-318h-76v674zM391 60h1q55 0 79 81t24 199q0 51 -5 96.5t-16.5 87t-32.5 66t-50 24.5q-55 0 -80 -81t-25 -194q0 -53 5 -100t16.5 -88.5
t33 -66t50.5 -24.5z" />
    <glyph glyph-name="afii10049" unicode="&#x42f;" horiz-adv-x="406" 
d="M91 0h-80q12 25 23 69q4 16 13 70.5t20.5 89.5t31.5 59q20 27 51 33v2q-52 16 -83 57.5t-31 107.5q0 98 66 149q52 40 134 40q66 0 110 -12v-665h-77v293h-28q-51 0 -77 -30q-16 -19 -25.5 -53.5t-18 -85t-11.5 -65.5q-7 -36 -18 -59zM269 354v257q-20 4 -40 4
q-57 0 -86 -35.5t-29 -93.5q0 -61 35.5 -97t92.5 -36q17 0 27 1z" />
    <glyph glyph-name="afii10065" unicode="&#x430;" horiz-adv-x="364" 
d="M309 320v-210q0 -79 5 -110h-69l-5 51h-3q-33 -59 -96 -59q-50 0 -82.5 38t-32.5 100q0 86 58.5 130.5t147.5 45.5v15q0 53 -17 81.5t-60 28.5q-44 0 -80 -25l-17 54q45 32 113 32q138 0 138 -172zM234 153v98q-133 0 -133 -113q0 -44 17.5 -65t41.5 -21q26 0 45 19
t26 54q3 13 3 28z" />
    <glyph glyph-name="afii10066" unicode="&#x431;" horiz-adv-x="388" 
d="M324 700l-4 -67q-11 -5 -43 -12.5t-45 -11.5q-70 -14 -101 -79q-23 -53 -30 -126h3q12 34 42 57t68 23q64 0 102.5 -58t38.5 -180q0 -125 -41.5 -190t-115.5 -65q-47 0 -80.5 27.5t-50 74t-23.5 93.5t-7 101q0 187 46 276q42 87 135 111q10 3 51 11.5t55 14.5zM278 239v1
q0 30 -3.5 58t-11.5 58t-25.5 48t-41.5 18q-47 0 -69 -54q-16 -42 -16 -103q0 -28 3 -58t11 -67.5t26.5 -61.5t45.5 -24q25 0 42 19t25 50t11 58.5t3 57.5z" />
    <glyph glyph-name="afii10067" unicode="&#x432;" horiz-adv-x="394" 
d="M54 -2v484q53 10 109 10q33 0 62.5 -5.5t57 -18t44 -37t16.5 -59.5q0 -42 -27 -73t-69 -42v-2q54 -9 85 -40.5t31 -80.5q0 -40 -19 -69t-51.5 -44t-67 -21.5t-72.5 -6.5q-51 0 -99 5zM130 432v-153h34q39 0 72 23t33 59q0 75 -100 75q-15 0 -39 -4zM129 224v-173
q27 -3 39 -3q50 0 84 20.5t34 65.5t-36.5 67.5t-87.5 22.5h-33z" />
    <glyph glyph-name="afii10068" unicode="&#x433;" horiz-adv-x="292" 
d="M54 484h226v-65h-149v-419h-77v484z" />
    <glyph glyph-name="afii10069" unicode="&#x434;" horiz-adv-x="417" 
d="M106 484h246v-424l41 -1l-4 -188h-59l-5 129h-251l-5 -129h-59l-4 188l32 1q31 47 46 103q22 81 22 180v141zM174 422v-71q0 -119 -21 -192q-15 -57 -38 -98h161v361h-102z" />
    <glyph glyph-name="afii10070" unicode="&#x435;" horiz-adv-x="363" 
d="M332 235h-224q1 -180 114 -180q46 0 80 18l13 -56q-41 -23 -107 -23q-85 0 -130 64.5t-45 178.5q0 117 45 186t118 69q69 0 103.5 -61.5t34.5 -151.5q0 -20 -2 -44zM109 292h151q1 68 -20.5 104t-51.5 36q-35 0 -55.5 -42.5t-23.5 -97.5z" />
    <glyph glyph-name="afii10072" unicode="&#x436;" horiz-adv-x="536" 
d="M13 484h85l118 -213h16v213h73v-213h17l117 213h85l-144 -222q82 -16 109 -132q22 -93 39 -130h-75q-15 26 -33 107q-16 61 -42 86.5t-65 25.5h-8v-219h-73v219h-8q-48 0 -68.5 -25t-40.5 -92q-18 -74 -31 -102h-75q9 19 40 126q32 120 109 136z" />
    <glyph glyph-name="afii10073" unicode="&#x437;" horiz-adv-x="337" 
d="M84 223l1 56h26q39 0 69 23t30 61q0 35 -21.5 53.5t-55.5 18.5q-41 0 -86 -25l-15 49q50 33 120 33q60 0 97.5 -32t37.5 -88q0 -43 -27.5 -73t-71.5 -42v-1q52 -8 84.5 -40t32.5 -82q0 -68 -52.5 -105t-125.5 -37q-65 0 -114 27l17 55q46 -24 91 -24q47 0 76.5 24.5
t29.5 59.5q0 46 -34 67.5t-81 21.5h-28z" />
    <glyph glyph-name="afii10074" unicode="&#x438;" horiz-adv-x="406" 
d="M54 484h70v-166q0 -143 -7 -232h2q16 46 72 189l81 209h81v-484h-71v160q0 116 8 236h-3q-20 -73 -58 -168q-60 -150 -96 -228h-79v484z" />
    <glyph glyph-name="afii10075" unicode="&#x439;" horiz-adv-x="406" 
d="M54 484h70v-166q0 -143 -7 -232h2q16 46 72 189l81 209h81v-484h-71v160q0 116 8 236h-3q-20 -73 -58 -168q-60 -150 -96 -228h-79v484zM90 667h54q3 -33 18 -50.5t41 -16.5q52 0 60 67h54q-13 -111 -115 -111q-101 0 -112 111z" />
    <glyph glyph-name="afii10076" unicode="&#x43a;" horiz-adv-x="367" 
d="M54 484h75v-210h11l127 210h85l-151 -218q85 -14 118 -137q28 -100 40 -129h-79q-10 24 -35 113q-14 53 -38.5 79t-69.5 26h-8v-218h-75v484z" />
    <glyph glyph-name="afii10077" unicode="&#x43b;" horiz-adv-x="383" 
d="M74 484h256v-484h-77v421h-106v-154q0 -116 -16 -177t-65 -85q-24 -12 -52 -12l-13 61q24 4 40 22q33 33 33 186v222z" />
    <glyph glyph-name="afii10078" unicode="&#x43c;" horiz-adv-x="538" 
d="M38 0l34 484h90l64 -212q24 -82 43 -155h2q25 99 41 155l62 212h92l33 -484h-72l-10 208q-5 103 -7 204h-2q-25 -105 -48 -186l-66 -223h-56l-63 215q-26 93 -49 194h-3q0 -70 -6 -208l-9 -204h-70z" />
    <glyph glyph-name="afii10079" unicode="&#x43d;" horiz-adv-x="405" 
d="M54 484h77v-205h143v205h77v-484h-77v213h-143v-213h-77v484z" />
    <glyph glyph-name="afii10080" unicode="&#x43e;" horiz-adv-x="383" 
d="M191 -8h-1q-69 0 -113 63.5t-44 185.5q0 125 47 188t115 63q69 0 112.5 -63.5t43.5 -185.5q0 -129 -47.5 -190t-112.5 -61zM193 53h1q31 0 50 33t24.5 72t5.5 84t-5.5 83.5t-25 72t-51.5 33.5q-24 0 -41.5 -18.5t-25.5 -49t-11.5 -60t-3.5 -61.5q0 -34 3.5 -64t12 -60
t25.5 -47.5t42 -17.5z" />
    <glyph glyph-name="afii10081" unicode="&#x43f;" horiz-adv-x="400" 
d="M54 484h293v-484h-77v420h-139v-420h-77v484z" />
    <glyph glyph-name="afii10082" unicode="&#x440;" horiz-adv-x="399" 
d="M53 -192v525q0 15 -4 151h69l4 -61h2q35 69 102 69q65 0 102.5 -65.5t37.5 -183.5q0 -126 -43.5 -188.5t-105.5 -62.5q-59 0 -85 55h-2v-239h-77zM130 301v-124q0 -24 4 -40q18 -81 70 -81q45 0 65 52t20 133q0 82 -21 133.5t-64 51.5q-26 0 -47 -27t-24 -61
q-3 -12 -3 -37z" />
    <glyph glyph-name="afii10083" unicode="&#x441;" horiz-adv-x="302" 
d="M279 71l11 -59q-31 -18 -80 -18q-81 0 -129 63.5t-48 181.5q0 108 51.5 180t139.5 72q43 0 68 -16l-15 -62q-26 13 -55 13q-55 0 -83.5 -54.5t-28.5 -132.5q0 -85 30.5 -133t83.5 -48q30 0 55 13z" />
    <glyph glyph-name="afii10084" unicode="&#x442;" horiz-adv-x="317" 
d="M10 484h297v-64h-110v-420h-77v420h-110v64z" />
    <glyph glyph-name="afii10085" unicode="&#x443;" horiz-adv-x="346" 
d="M13 484h81l64 -278q5 -21 11 -54t9 -46h2q6 33 21 99l57 279h76l-79 -311q-57 -230 -120 -312q-40 -51 -87 -73l-28 65q38 22 68 61q29 38 44 82q5 14 5 24q0 12 -2 18z" />
    <glyph glyph-name="afii10086" unicode="&#x444;" horiz-adv-x="477" 
d="M203 684h70v-192q80 -10 126 -73t46 -177q0 -115 -45 -178t-127 -72v-184h-70v184q-80 9 -125 71.5t-45 177.5q0 113 45 176t125 74v193zM204 45v394q-53 -13 -76 -69t-23 -128t23 -128.5t76 -68.5zM273 439v-394q100 24 100 197q0 45 -7.5 82.5t-31 71t-61.5 43.5z" />
    <glyph glyph-name="afii10087" unicode="&#x445;" horiz-adv-x="340" 
d="M15 484h82l45 -103q14 -32 32 -85h2q15 43 33 85l43 103h79l-115 -238l114 -246h-84l-46 109q-8 18 -32 83h-2q-10 -29 -32 -83l-44 -109h-79l115 243z" />
    <glyph glyph-name="afii10088" unicode="&#x446;" horiz-adv-x="411" 
d="M54 484h77v-420h138v420h77v-424l41 -1l-4 -188h-59l-5 129h-265v484z" />
    <glyph glyph-name="afii10089" unicode="&#x447;" horiz-adv-x="393" 
d="M47 484h77v-185q0 -86 67 -86q34 0 71 22v249h77v-486h-77v181h-2q-38 -25 -92 -25q-57 0 -89 34t-32 99v197z" />
    <glyph glyph-name="afii10090" unicode="&#x448;" horiz-adv-x="590" 
d="M54 484h76v-420h127v420h76v-420h128v420h76v-484h-483v484z" />
    <glyph glyph-name="afii10091" unicode="&#x449;" horiz-adv-x="602" 
d="M54 484h76v-420h127v420h76v-420h128v420h76v-424l40 -1l-4 -188h-59l-5 129h-455v484z" />
    <glyph glyph-name="afii10092" unicode="&#x44a;" horiz-adv-x="464" 
d="M13 484h193v-171q7 0 23 1.5t23 1.5q79 0 132 -39.5t53 -115.5t-54 -119q-57 -47 -154 -47q-49 0 -99 8v418h-117v63zM206 254v-196q18 -3 36 -3q50 0 83 26t33 76t-34 74.5t-86 24.5q-12 0 -32 -2z" />
    <glyph glyph-name="afii10093" unicode="&#x44b;" horiz-adv-x="528" 
d="M54 484h76v-171q24 3 46 3q74 0 124 -41t50 -114q0 -76 -54 -119q-57 -47 -143 -47q-49 0 -99 8v481zM130 254v-196q18 -3 34 -3q45 0 76 28t31 74q0 47 -31.5 73t-77.5 26q-12 0 -32 -2zM400 484h74v-484h-74v484z" />
    <glyph glyph-name="afii10094" unicode="&#x44c;" horiz-adv-x="388" 
d="M54 484h76v-171q7 0 23 1.5t23 1.5q80 0 132.5 -39.5t52.5 -116.5q0 -75 -54 -118q-57 -47 -154 -47q-49 0 -99 8v481zM130 254v-197q24 -2 34 -2q51 0 84.5 26t33.5 76t-34 74.5t-86 24.5q-12 0 -32 -2z" />
    <glyph glyph-name="afii10095" unicode="&#x44d;" horiz-adv-x="324" 
d="M50 219v56h163q-1 63 -29 109.5t-86 46.5q-32 0 -64 -14l-12 54q32 21 90 21q84 0 132 -69q48 -68 48 -178q0 -105 -50 -178.5t-143 -73.5q-56 0 -86 20l14 56q30 -14 69 -14q50 0 83.5 46t34.5 118h-164z" />
    <glyph glyph-name="afii10096" unicode="&#x44e;" horiz-adv-x="524" 
d="M54 484h75v-203h60q8 105 50.5 158t101.5 53q65 0 107.5 -64.5t42.5 -185.5q0 -128 -46 -189t-108 -61t-103.5 57.5t-45.5 169.5h-59v-219h-75v484zM339 53h1q22 0 37.5 18t23 48.5t11 60.5t3.5 62q0 31 -3.5 61t-11.5 60.5t-24 49t-38 18.5q-23 0 -39 -18.5t-23.5 -49
t-11 -60t-3.5 -61.5q0 -75 18 -132t60 -57z" />
    <glyph glyph-name="afii10097" unicode="&#x44f;" horiz-adv-x="379" 
d="M326 481v-481h-75v207h-23q-46 0 -71 -23q-11 -10 -20 -28t-13 -33t-10.5 -44t-10.5 -43q-7 -23 -13 -36h-81q15 25 22 50q3 10 9.5 37t11 43t13.5 36.5t21 33.5q23 25 60 32v2q-46 9 -76.5 39.5t-30.5 79.5q0 63 49 101q45 36 134 36q64 0 104 -9zM251 259v174
q-13 4 -33 4q-44 0 -73 -21.5t-29 -64.5t31.5 -67.5t73.5 -24.5h30z" />
    <glyph glyph-name="afii10071" unicode="&#x451;" horiz-adv-x="363" 
d="M332 235h-224q1 -180 114 -180q46 0 80 18l13 -56q-41 -23 -107 -23q-85 0 -130 64.5t-45 178.5q0 117 45 186t118 69q69 0 103.5 -61.5t34.5 -151.5q0 -20 -2 -44zM109 292h151q1 68 -20.5 104t-51.5 36q-35 0 -55.5 -42.5t-23.5 -97.5zM121 566h-1q-18 0 -31 12.5
t-13 31.5t13 32t32 13q18 0 30 -12.5t12 -32.5q0 -19 -12 -31.5t-30 -12.5zM277 566h-1q-18 0 -31 12.5t-13 31.5t13 32t32 13q18 0 30 -12.5t12 -32.5q0 -19 -12 -31.5t-30 -12.5z" />
    <glyph glyph-name="afii10099" unicode="&#x452;" horiz-adv-x="414" 
d="M12 614h52v78h77v-78h175v-54h-175v-130h2q37 60 100 60q71 0 105 -76q30 -66 30 -192q0 -195 -71 -281q-19 -25 -46.5 -42.5t-50.5 -20.5l-19 62q38 8 63 45q47 70 47 231q0 104 -21 157q-20 52 -61 52q-34 0 -55 -34q-23 -36 -23 -81v-310h-77v560h-52v54z" />
    <glyph glyph-name="afii10100" unicode="&#x453;" horiz-adv-x="292" 
d="M54 484h226v-65h-149v-419h-77v484zM201 682h79l-105 -135h-51z" />
    <glyph glyph-name="afii10101" unicode="&#x454;" horiz-adv-x="331" 
d="M318 470l-17 -55q-34 17 -65 17q-60 0 -91 -47.5t-33 -109.5h170v-56h-171q2 -74 36 -119.5t89 -45.5q37 0 67 16l14 -56q-36 -21 -92 -21q-63 0 -108 36.5t-64.5 91.5t-19.5 120q0 105 51.5 178t150.5 73q54 0 83 -22z" />
    <glyph glyph-name="afii10102" unicode="&#x455;" horiz-adv-x="289" 
d="M22 22l19 58q39 -25 78 -25q32 0 51.5 19t19.5 51q0 29 -13.5 50.5t-48.5 44.5q-97 63 -97 138q0 59 38 96.5t95 37.5q48 0 86 -25l-20 -58q-32 22 -65 22q-29 0 -45.5 -18t-16.5 -44q0 -25 12.5 -42t47.5 -41q100 -64 100 -148q0 -70 -41.5 -107t-104.5 -37
q-60 0 -95 28z" />
    <glyph glyph-name="afii10103" unicode="&#x456;" horiz-adv-x="184" 
d="M131 0h-77v484h77v-484zM91 559h-1q-19 0 -31.5 14t-12.5 36t13 36t32 14q21 0 33.5 -13.5t12.5 -36.5t-12.5 -36.5t-33.5 -13.5z" />
    <glyph glyph-name="afii10104" unicode="&#x457;" horiz-adv-x="184" 
d="M131 0h-77v484h77v-484zM15 566h-1q-18 0 -31 12.5t-13 31.5t13 32t32 13q18 0 30 -12.5t12 -32.5q0 -19 -12 -31.5t-30 -12.5zM171 566h-1q-18 0 -31 12.5t-13 31.5t13 32t32 13q18 0 30 -12.5t12 -32.5q0 -19 -12 -31.5t-30 -12.5z" />
    <glyph glyph-name="afii10105" unicode="&#x458;" horiz-adv-x="188" 
d="M-18 -200l-10 61q47 11 65 37q23 35 23 154v432h77v-453q0 -75 -11.5 -116t-37.5 -70q-20 -20 -50.5 -32t-55.5 -13zM99 559h-1q-20 0 -32.5 14t-12.5 36t13 36t33 14t32.5 -13.5t12.5 -36.5t-12.5 -36.5t-32.5 -13.5z" />
    <glyph glyph-name="afii10106" unicode="&#x459;" horiz-adv-x="590" 
d="M74 484h258v-171q7 0 23 1.5t23 1.5q79 0 132 -39.5t53 -116.5q0 -74 -53 -117q-60 -48 -158 -48q-46 0 -96 8v418h-109v-154q0 -117 -15.5 -178t-65.5 -85q-28 -11 -52 -11l-13 61q24 4 40 22q20 19 26.5 62.5t6.5 123.5v222zM332 254v-196q18 -3 34 -3q51 0 84.5 26
t33.5 76t-33.5 74.5t-86.5 24.5q-12 0 -32 -2z" />
    <glyph glyph-name="afii10107" unicode="&#x45a;" horiz-adv-x="601" 
d="M54 484h77v-188h136v188h76v-176q7 0 23 1.5t24 1.5q79 0 131.5 -39.5t52.5 -115.5q0 -70 -53 -115q-59 -46 -158 -46q-42 0 -96 7v231h-136v-233h-77v484zM343 249v-191q18 -3 38 -3q48 0 81 25.5t33 73.5q0 49 -34 73t-86 24q-12 0 -32 -2z" />
    <glyph glyph-name="afii10108" unicode="&#x45b;" horiz-adv-x="415" 
d="M12 614h52v78h77v-78h175v-54h-175v-130h2q15 25 41 43q26 17 64 17q49 0 81 -42t32 -127v-321h-77v310q0 115 -65 115q-58 0 -75 -77q-3 -16 -3 -41v-307h-77v560h-52v54z" />
    <glyph glyph-name="afii10109" unicode="&#x45c;" horiz-adv-x="367" 
d="M54 484h75v-210h11l127 210h85l-151 -218q85 -14 118 -137q28 -100 40 -129h-79q-10 24 -35 113q-14 53 -38.5 79t-69.5 26h-8v-218h-75v484zM222 682h79l-105 -135h-51z" />
    <glyph glyph-name="afii10110" unicode="&#x45e;" horiz-adv-x="346" 
d="M13 484h81l64 -278q5 -21 11 -54t9 -46h2q6 33 21 99l57 279h76l-79 -311q-57 -230 -120 -312q-40 -51 -87 -73l-28 65q38 22 68 61q29 38 44 82q5 14 5 24q0 12 -2 18zM60 667h54q3 -33 18 -50.5t41 -16.5q52 0 60 67h54q-13 -111 -115 -111q-101 0 -112 111z" />
    <glyph glyph-name="afii10193" unicode="&#x45f;" horiz-adv-x="400" 
d="M54 484h77v-420h138v420h77v-484h-110l-6 -133h-60l-6 133h-110v484z" />
    <glyph glyph-name="afii10050" unicode="&#x490;" horiz-adv-x="334" 
d="M60 674h200l14 112h55l-10 -179h-182v-607h-77v674z" />
    <glyph glyph-name="afii10098" unicode="&#x491;" horiz-adv-x="289" 
d="M54 484h162l10 96h57l-8 -160h-144v-420h-77v484z" />
    <glyph glyph-name="afii10846" unicode="&#x4d9;" horiz-adv-x="363" 
d="M60 412l-13 54q44 26 108 26q85 0 130 -65t45 -179q0 -116 -44.5 -185t-118.5 -69q-70 0 -104.5 61.5t-34.5 151.5q0 22 2 42h225q-1 182 -114 182q-45 0 -81 -19zM254 192h-152q-1 -67 21 -102.5t52 -35.5q36 0 56 41.5t23 96.5z" />
    <glyph glyph-name="Wgrave" unicode="&#x1e80;" horiz-adv-x="654" 
d="M222 0h-73l-129 674h79l57 -325q20 -112 34 -243h3q8 79 41 244l62 324h65l63 -317q31 -163 39 -251h3q10 90 35 247l56 321h76l-131 -674h-76l-64 328q-21 107 -35 221h-2q-13 -114 -37 -224zM189 818h91l94 -108h-61z" />
    <glyph glyph-name="wgrave" unicode="&#x1e81;" horiz-adv-x="566" 
d="M13 484h80l47 -237q20 -104 26 -154h4q9 64 30 152l56 239h59l53 -232q22 -100 31 -159h4q7 63 26 156l46 235h77l-122 -484h-63l-56 235q-14 54 -27 145h-2q-11 -75 -28 -148l-58 -232h-65zM168 682h79l77 -135h-51z" />
    <glyph glyph-name="Wacute" unicode="&#x1e82;" horiz-adv-x="654" 
d="M222 0h-73l-129 674h79l57 -325q20 -112 34 -243h3q8 79 41 244l62 324h65l63 -317q31 -163 39 -251h3q10 90 35 247l56 321h76l-131 -674h-76l-64 328q-21 107 -35 221h-2q-13 -114 -37 -224zM379 818h91l-124 -108h-61z" />
    <glyph glyph-name="wacute" unicode="&#x1e83;" horiz-adv-x="566" 
d="M13 484h80l47 -237q20 -104 26 -154h4q9 64 30 152l56 239h59l53 -232q22 -100 31 -159h4q7 63 26 156l46 235h77l-122 -484h-63l-56 235q-14 54 -27 145h-2q-11 -75 -28 -148l-58 -232h-65zM328 682h79l-105 -135h-51z" />
    <glyph glyph-name="Wdieresis" unicode="&#x1e84;" horiz-adv-x="654" 
d="M222 0h-73l-129 674h79l57 -325q20 -112 34 -243h3q8 79 41 244l62 324h65l63 -317q31 -163 39 -251h3q10 90 35 247l56 321h76l-131 -674h-76l-64 328q-21 107 -35 221h-2q-13 -114 -37 -224zM249 725h-1q-18 0 -30 13t-12 34q0 19 12.5 32.5t30.5 13.5q19 0 31 -13
t12 -33q0 -21 -12 -34t-31 -13zM410 725h-1q-18 0 -30 13t-12 34q0 19 12.5 32.5t30.5 13.5q19 0 31 -13t12 -33q0 -21 -12 -34t-31 -13z" />
    <glyph glyph-name="wdieresis" unicode="&#x1e85;" horiz-adv-x="566" 
d="M13 484h80l47 -237q20 -104 26 -154h4q9 64 30 152l56 239h59l53 -232q22 -100 31 -159h4q7 63 26 156l46 235h77l-122 -484h-63l-56 235q-14 54 -27 145h-2q-11 -75 -28 -148l-58 -232h-65zM206 566h-1q-18 0 -31 12.5t-13 31.5t13 32t32 13q18 0 30 -12.5t12 -32.5
q0 -19 -12 -31.5t-30 -12.5zM362 566h-1q-18 0 -31 12.5t-13 31.5t13 32t32 13q18 0 30 -12.5t12 -32.5q0 -19 -12 -31.5t-30 -12.5z" />
    <glyph glyph-name="Ygrave" unicode="&#x1ef2;" horiz-adv-x="394" 
d="M235 0h-77v285l-149 389h82l60 -169q40 -118 50 -152h2q12 48 49 155l57 166h80l-154 -386v-288zM62 811h91l94 -108h-61z" />
    <glyph glyph-name="ygrave" unicode="&#x1ef3;" horiz-adv-x="346" 
d="M13 484h81l64 -278q5 -21 11 -54t9 -46h2q6 33 21 99l57 279h76l-79 -311q-57 -230 -120 -312q-40 -51 -87 -73l-28 65q38 22 68 61q29 38 44 82q5 14 5 24q0 12 -2 18zM62 682h79l77 -135h-51z" />
    <glyph glyph-name="endash" unicode="&#x2013;" horiz-adv-x="500" 
d="M30 288h440v-55h-440v55z" />
    <glyph glyph-name="emdash" unicode="&#x2014;" horiz-adv-x="1000" 
d="M30 288h940v-55h-940v55z" />
    <glyph glyph-name="quoteleft" unicode="&#x2018;" horiz-adv-x="177" 
d="M100 456l-78 -10q16 59 43 127.5t47 102.5l46 7q-42 -116 -58 -227z" />
    <glyph glyph-name="quoteright" unicode="&#x2019;" horiz-adv-x="177" 
d="M78 674l78 10q-16 -59 -43 -127t-47 -103l-46 -7q42 116 58 227z" />
    <glyph glyph-name="quotesinglbase" unicode="&#x201a;" horiz-adv-x="177" 
d="M66 -113l-46 -7q42 116 58 227l78 10q-16 -59 -43 -127.5t-47 -102.5z" />
    <glyph glyph-name="quotedblleft" unicode="&#x201c;" horiz-adv-x="307" 
d="M98 456l-78 -10q16 60 43.5 128.5t47.5 101.5l45 7q-42 -116 -58 -227zM231 456l-78 -10q15 58 42 126.5t48 103.5l46 7q-42 -116 -58 -227z" />
    <glyph glyph-name="quotedblright" unicode="&#x201d;" horiz-adv-x="307" 
d="M77 674l78 10q-15 -58 -42 -126t-48 -104l-46 -7q42 116 58 227zM210 674l78 10q-16 -60 -43 -128t-48 -102l-45 -7q42 116 58 227z" />
    <glyph glyph-name="quotedblbase" unicode="&#x201e;" horiz-adv-x="307" 
d="M65 -113l-46 -7q42 116 58 227l78 10q-15 -58 -42 -126.5t-48 -103.5zM197 -113l-45 -7q42 116 58 227l78 10q-16 -60 -43.5 -128.5t-47.5 -101.5z" />
    <glyph glyph-name="dagger" unicode="&#x2020;" horiz-adv-x="380" 
d="M155 674h70l-6 -198l131 6v-68l-131 6l6 -470h-70l6 470l-131 -6v68l131 -6z" />
    <glyph glyph-name="daggerdbl" unicode="&#x2021;" horiz-adv-x="380" 
d="M156 674h69l-4 -195l129 6v-68l-129 6v-214l129 6v-68l-129 6l4 -203h-70l4 203l-128 -6v68l129 -6v214l-129 -6v68l129 -6z" />
    <glyph glyph-name="bullet" unicode="&#x2022;" horiz-adv-x="257" 
d="M128 162h-1q-39 0 -66.5 27t-27.5 69q-1 42 27 69.5t68 27.5t68 -27.5t28 -69.5q0 -41 -27.5 -68.5t-68.5 -27.5z" />
    <glyph glyph-name="ellipsis" unicode="&#x2026;" horiz-adv-x="1000" 
d="M167 -8h-1q-21 0 -35.5 16t-14.5 42q0 25 15 41.5t36 16.5q23 0 37 -16t14 -42q0 -27 -13.5 -42.5t-37.5 -15.5zM500 -8h-1q-21 0 -35.5 16t-14.5 42q0 25 15 41.5t36 16.5q23 0 37 -16t14 -42q0 -27 -13.5 -42.5t-37.5 -15.5zM833 -8h-1q-21 0 -35.5 16t-14.5 42
q0 25 15 41.5t36 16.5q23 0 37 -16t14 -42q0 -27 -13.5 -42.5t-37.5 -15.5z" />
    <glyph glyph-name="perthousand" unicode="&#x2030;" horiz-adv-x="934" 
d="M153 658h1q55 0 88 -53.5t33 -142.5q0 -97 -35.5 -147.5t-86.5 -50.5q-55 0 -89 53t-34 143q0 91 35 144.5t88 53.5zM152 610h-1q-33 0 -47.5 -44.5t-14.5 -104.5q0 -149 64 -149q63 0 63 148q0 150 -64 150zM173 -14h-49l346 677h49zM493 387h1q55 0 88 -53.5t33 -142.5
q0 -97 -35.5 -147.5t-86.5 -50.5q-55 0 -89 53t-34 143q0 91 35 144.5t88 53.5zM492 339h-1q-33 0 -47.5 -44.5t-14.5 -104.5q0 -149 64 -149q63 0 63 148q0 150 -64 150zM783 387h1q54 0 87 -54t33 -142q0 -97 -35.5 -147.5t-86.5 -50.5q-54 0 -88 53t-34 143
q0 91 35 144.5t88 53.5zM782 339h-1q-33 0 -47.5 -44.5t-14.5 -104.5q0 -61 14.5 -105t48.5 -44q63 0 63 148q0 150 -63 150z" />
    <glyph glyph-name="guilsinglleft" unicode="&#x2039;" horiz-adv-x="210" 
d="M190 427l-103 -175l103 -174h-63l-102 174l103 175h62z" />
    <glyph glyph-name="guilsinglright" unicode="&#x203a;" horiz-adv-x="210" 
d="M124 252l-103 175h62l103 -175l-102 -174h-63z" />
    <glyph glyph-name="fraction" unicode="&#x2044;" horiz-adv-x="350" 
d="M30 -8h-49l340 666h49z" />
    <glyph glyph-name="fraction" unicode="&#x2215;" horiz-adv-x="350" 
d="M30 -8h-49l340 666h49z" />
    <glyph glyph-name="zerosuperior" unicode="&#x2070;" horiz-adv-x="265" 
d="M131 412h-1q-54 0 -83.5 53.5t-29.5 145.5q0 94 31 147.5t87 53.5q57 0 84.5 -53.5t27.5 -144.5q0 -100 -31.5 -151t-84.5 -51zM132 462h1q53 0 53 151q0 149 -53 149q-26 0 -40.5 -39.5t-14.5 -109.5q0 -151 54 -151z" />
    <glyph glyph-name="foursuperior" unicode="&#x2074;" horiz-adv-x="270" 
d="M212 417h-56v107h-147v35l144 251h59v-240h46v-46h-46v-107zM156 570v100q0 39 4 73h-2q-28 -56 -35 -69l-55 -102v-2h88z" />
    <glyph glyph-name="fivesuperior" unicode="&#x2075;" horiz-adv-x="246" 
d="M219 807v-53h-117l-13 -89q4 1 17 1q48 0 79 -27q39 -32 39 -92q0 -59 -37 -97t-96 -38q-49 0 -78 18l12 48q28 -16 63 -16q32 0 53.5 21t21.5 58q0 40 -25 60.5t-69 20.5q-9 0 -36 -3l24 188h162z" />
    <glyph glyph-name="sixsuperior" unicode="&#x2076;" horiz-adv-x="266" 
d="M217 812v-50q-20 0 -32 -3q-87 -17 -106 -125h2q27 36 71 36q43 0 69.5 -33t26.5 -89q0 -58 -29.5 -97t-82.5 -39q-55 0 -86.5 45t-31.5 117q0 109 58 176q40 47 106 59q22 3 35 3zM136 458h1q22 0 36 23t14 65q0 37 -14.5 58.5t-39.5 21.5q-34 0 -51 -38q-4 -10 -4 -27
q0 -48 15.5 -75.5t42.5 -27.5z" />
    <glyph glyph-name="sevensuperior" unicode="&#x2077;" horiz-adv-x="228" 
d="M10 807h214v-39l-137 -351h-60l135 336v1h-152v53z" />
    <glyph glyph-name="eightsuperior" unicode="&#x2078;" horiz-adv-x="266" 
d="M137 812h1q45 0 72 -27.5t27 -66.5q0 -57 -55 -90v-2q66 -36 66 -102q0 -50 -32.5 -81t-83.5 -31q-53 0 -83.5 30t-30.5 73q0 68 65 107v1q-52 33 -52 88q0 45 30.5 73t75.5 28zM134 455h1q24 0 38.5 17.5t14.5 47.5q0 54 -59 81q-51 -25 -51 -78q0 -30 15 -49t41 -19z
M135 770h-1q-21 0 -33.5 -16t-12.5 -40q0 -45 52 -68q40 23 40 66q0 26 -11.5 42t-33.5 16z" />
    <glyph glyph-name="ninesuperior" unicode="&#x2079;" horiz-adv-x="262" 
d="M45 412v50q15 0 34 3q35 6 59 30q34 32 44 96h-1q-26 -31 -68 -31t-69 32t-27 85q0 55 31.5 95t82.5 40q54 0 83.5 -44.5t29.5 -115.5q0 -114 -60 -183q-40 -46 -102 -55q-14 -2 -37 -2zM128 766h-1q-21 0 -35.5 -22.5t-14.5 -62.5q0 -36 14 -57t38 -21q35 0 50 31
q4 8 4 28q0 50 -14.5 77t-40.5 27z" />
    <glyph glyph-name="parenleftsuperior" unicode="&#x207d;" horiz-adv-x="159" 
d="M104 846h45q-65 -99 -65 -244q0 -142 65 -243h-45q-69 96 -69 243q0 148 69 244z" />
    <glyph glyph-name="parenrightsuperior" unicode="&#x207e;" horiz-adv-x="159" 
d="M54 359h-45q65 101 65 244q0 142 -65 243h45q70 -95 70 -243q0 -144 -70 -244z" />
    <glyph glyph-name="zeroinferior" unicode="&#x2080;" horiz-adv-x="265" 
d="M131 -152h-1q-54 0 -83.5 53.5t-29.5 145.5q0 94 31 147.5t87 53.5q57 0 84.5 -53.5t27.5 -144.5q0 -100 -31.5 -151t-84.5 -51zM132 -102h1q53 0 53 151q0 149 -53 149q-26 0 -40.5 -39.5t-14.5 -109.5q0 -151 54 -151z" />
    <glyph glyph-name="oneinferior" unicode="&#x2081;" horiz-adv-x="212" 
d="M157 -147h-60v333h-2l-73 -39l-11 48l94 48h52v-390z" />
    <glyph glyph-name="twoinferior" unicode="&#x2082;" horiz-adv-x="245" 
d="M2 -147v29l41 50q37 46 53.5 68t37 61.5t20.5 69.5q0 33 -16 49t-44 16q-34 0 -66 -27l-17 44q37 35 99 35q53 0 80.5 -30.5t27.5 -76.5q0 -76 -103 -197l-30 -37v-2h139v-52h-222z" />
    <glyph glyph-name="threeinferior" unicode="&#x2083;" horiz-adv-x="235" 
d="M30 179l-13 43q36 26 87 26q48 0 74.5 -26t26.5 -65q0 -64 -62 -89v-2q30 -7 52.5 -33t22.5 -65q0 -52 -36.5 -86t-98.5 -34q-47 0 -82 21l13 46q35 -19 70 -19q31 0 51 18.5t20 51.5q0 76 -89 76h-7v42h6q27 0 53.5 17t26.5 47q0 25 -14 38.5t-38 13.5q-34 0 -63 -21z
" />
    <glyph glyph-name="fourinferior" unicode="&#x2084;" horiz-adv-x="270" 
d="M212 -147h-56v107h-147v35l144 251h59v-240h46v-46h-46v-107zM156 6v100q0 39 4 73h-2q-28 -56 -35 -69l-55 -102v-2h88z" />
    <glyph glyph-name="fiveinferior" unicode="&#x2085;" horiz-adv-x="246" 
d="M219 243v-53h-117l-13 -89q4 1 17 1q48 0 79 -27q39 -32 39 -92q0 -59 -37 -97t-96 -38q-49 0 -78 18l12 48q28 -16 63 -16q32 0 53.5 21t21.5 58q0 40 -25 60.5t-69 20.5q-9 0 -36 -3l24 188h162z" />
    <glyph glyph-name="sixinferior" unicode="&#x2086;" horiz-adv-x="266" 
d="M217 248v-50q-20 0 -32 -3q-87 -17 -106 -125h2q27 36 71 36q43 0 69.5 -33t26.5 -89q0 -58 -29.5 -97t-82.5 -39q-55 0 -86.5 45t-31.5 117q0 109 58 176q40 47 106 59q22 3 35 3zM136 -106h1q22 0 36 23t14 65q0 37 -14.5 58.5t-39.5 21.5q-34 0 -51 -38q-4 -10 -4 -27
q0 -48 15.5 -75.5t42.5 -27.5z" />
    <glyph glyph-name="seveninferior" unicode="&#x2087;" horiz-adv-x="228" 
d="M10 243h214v-39l-137 -351h-60l135 336v1h-152v53z" />
    <glyph glyph-name="eightinferior" unicode="&#x2088;" horiz-adv-x="266" 
d="M137 248h1q45 0 72 -27.5t27 -66.5q0 -57 -55 -90v-2q66 -36 66 -102q0 -50 -32.5 -81t-83.5 -31q-53 0 -83.5 30t-30.5 73q0 68 65 107v1q-52 33 -52 88q0 45 30.5 73t75.5 28zM134 -109h1q24 0 38.5 17.5t14.5 47.5q0 54 -59 81q-51 -25 -51 -78q0 -30 15 -49t41 -19z
M135 206h-1q-21 0 -33.5 -16t-12.5 -40q0 -45 52 -68q40 23 40 66q0 26 -11.5 42t-33.5 16z" />
    <glyph glyph-name="nineinferior" unicode="&#x2089;" horiz-adv-x="262" 
d="M45 -152v50q15 0 34 3q35 6 59 30q34 32 44 96h-1q-26 -31 -68 -31t-69 32t-27 85q0 55 31.5 95t82.5 40q54 0 83.5 -44.5t29.5 -115.5q0 -114 -60 -183q-40 -46 -102 -55q-14 -2 -37 -2zM128 202h-1q-21 0 -35.5 -22.5t-14.5 -62.5q0 -36 14 -57t38 -21q35 0 50 31
q4 8 4 28q0 50 -14.5 77t-40.5 27z" />
    <glyph glyph-name="parenleftinferior" unicode="&#x208d;" horiz-adv-x="159" 
d="M104 282h45q-65 -99 -65 -244q0 -142 65 -243h-45q-69 96 -69 243q0 148 69 244z" />
    <glyph glyph-name="parenrightinferior" unicode="&#x208e;" horiz-adv-x="159" 
d="M54 -205h-45q65 101 65 244q0 142 -65 243h45q70 -95 70 -243q0 -144 -70 -244z" />
    <glyph glyph-name="Euro" unicode="&#x20ac;" horiz-adv-x="385" 
d="M358 81l13 -61q-44 -28 -100 -28q-85 0 -139 64q-55 66 -66 198h-48v47h45v14q0 31 1 43h-46v47h51q13 121 71 187q55 66 140 66q46 0 85 -24l-17 -63q-29 20 -69 20q-50 0 -81 -38q-42 -45 -53 -148h170v-47h-174q-1 -10 -1 -38v-19h175v-47h-172q7 -93 41 -145
q33 -50 96 -50q41 0 78 22z" />
    <glyph glyph-name="afii61289" unicode="&#x2113;" horiz-adv-x="396" 
d="M166 500v-172q91 125 91 246q0 73 -41 73q-50 0 -50 -147zM337 108l35 -36q-21 -36 -59 -59t-84 -23q-135 0 -138 188v12q-3 -3 -42 -34l-24 40q38 30 66 58v243q0 212 123 212q45 0 74 -34.5t29 -98.5q0 -160 -151 -326v-35q0 -90 20.5 -124t59.5 -34q47 0 91 51z" />
    <glyph glyph-name="afii61352" unicode="&#x2116;" horiz-adv-x="705" 
d="M558 654h1q56 0 86 -41.5t30 -122.5q0 -85 -34.5 -125.5t-84.5 -40.5q-54 0 -87 42.5t-33 122.5t34.5 122.5t87.5 42.5zM555 609h-1q-29 0 -43 -37.5t-14 -82.5q0 -47 14.5 -83.5t43.5 -36.5q59 0 59 120t-59 120zM659 235h-207v47h207v-47zM128 0h-68v667h71l117 -314
q54 -143 82 -233h1q-8 170 -8 306v241h67v-667h-72l-120 321q-36 93 -76 227h-1q7 -126 7 -316v-232z" />
    <glyph glyph-name="trademark" unicode="&#x2122;" horiz-adv-x="509" 
d="M25 674h178v-43h-65v-229h-49v229h-64v43zM488 402h-47l-8 159q-1 12 -1.5 37.5t-0.5 39.5h-2q-2 -11 -8 -40t-9 -41l-36 -151h-50l-35 155q-1 7 -6.5 35t-8.5 42h-2q0 -27 -2 -77l-8 -159h-45l15 272h73l33 -129q4 -17 13 -69h1q10 48 14 67l34 131h69z" />
    <glyph glyph-name="estimated" unicode="&#x212e;" horiz-adv-x="817" 
d="M782 316h-605q-5 0 -5 -4v-183q0 -10 9 -21q93 -99 229 -99q145 0 240 111h55q-52 -61 -130 -96t-166 -35q-155 0 -264.5 98.5t-109.5 237.5t109.5 237.5t264.5 98.5t264 -98.5t109 -237.5v-9zM646 340v184q0 12 -10 22q-95 95 -226 95q-133 0 -228 -98q-10 -10 -10 -23
v-180q0 -5 5 -5h464q5 0 5 5z" />
    <glyph glyph-name="partialdiff" unicode="&#x2202;" horiz-adv-x="405" 
d="M70 632l-23 52q65 44 127 44q84 0 144 -86.5t60 -255.5q0 -197 -61 -295.5t-142 -98.5q-65 0 -104.5 52.5t-39.5 151.5q0 109 52 178.5t123 69.5q62 0 96 -54h1v18q0 125 -40.5 189.5t-98.5 64.5q-54 0 -94 -30zM182 56h1q44 0 78 76t37 181q-26 68 -79 68
q-46 0 -78.5 -53.5t-32.5 -132.5q0 -73 21 -106t53 -33z" />
    <glyph glyph-name="uni2206" unicode="&#x2206;" horiz-adv-x="412" 
d="M392 0h-373v44l149 612h79l145 -611v-45zM316 66l-77 331q-18 80 -32 169h-4q-10 -66 -33 -168l-76 -332h222z" />
    <glyph glyph-name="product" unicode="&#x220f;" horiz-adv-x="449" 
d="M439 582h-60v-672h-71v672h-170v-672h-71v672h-60v68h432v-68z" />
    <glyph glyph-name="summation" unicode="&#x2211;" horiz-adv-x="381" 
d="M378 -90h-368v51l185 318l-175 320v51h335v-66h-242v-4l161 -297l-175 -302v-4h279v-67z" />
    <glyph glyph-name="minus" unicode="&#x2212;" horiz-adv-x="596" 
d="M40 295h516v-55h-516v55z" />
    <glyph glyph-name="radical" unicode="&#x221a;" horiz-adv-x="530" 
d="M518 825l-198 -919h-55l-129 427l-71 -26l-16 45l128 47l94 -327q17 -59 18 -81h1q5 40 13 80l157 754h58z" />
    <glyph glyph-name="infinity" unicode="&#x221e;" horiz-adv-x="725" 
d="M540 119h-1q-12 0 -23.5 2t-23.5 6.5t-21 8.5t-21 13t-18.5 13t-19 16t-16.5 15.5t-17.5 17l-15.5 15.5q-61 -61 -93 -80q-45 -27 -92 -27q-61 0 -101 41t-40 104q0 60 42.5 102.5t106.5 42.5q11 0 22.5 -2t20 -4.5t20 -8.5t18 -9t18.5 -12.5t16.5 -12.5t17 -15t15 -14
t15.5 -15.5t14 -14.5q28 28 39.5 39t38 31.5t52.5 29t55 8.5q61 0 101 -41t40 -104q0 -60 -42.5 -102.5t-106.5 -42.5zM541 174h1q38 0 63.5 26.5t25.5 63.5q0 39 -24.5 64.5t-62.5 25.5q-21 0 -40.5 -7t-41.5 -25t-30.5 -26t-31.5 -32q3 -3 28.5 -28t36 -33t33 -18.5
t43.5 -10.5zM182 174h1q27 0 57 17t44 30t42 42q-5 4 -29 28t-35 33t-33.5 19.5t-43.5 10.5q-38 0 -64 -26.5t-26 -63.5q0 -39 24.5 -64.5t62.5 -25.5z" />
    <glyph glyph-name="integral" unicode="&#x222b;" horiz-adv-x="311" 
d="M289 786l-11 -53q-16 4 -27 4q-24 0 -40 -22q-26 -34 -26 -158q0 -72 3.5 -234t3.5 -238q0 -138 -38 -190q-29 -44 -87 -44q-25 0 -43 8l12 54q16 -4 27 -4q25 0 39 21q27 38 27 155q0 76 -3.5 240.5t-3.5 236.5q0 145 47 196q32 35 82 35q22 0 38 -7z" />
    <glyph glyph-name="approxequal" unicode="&#x2248;" horiz-adv-x="596" 
d="M539 411l29 -42q-26 -28 -66.5 -48.5t-82.5 -20.5q-21 0 -42 4t-32.5 8.5t-30.5 13t-25 10.5t-23 10t-27.5 12t-29 8t-36.5 4q-62 0 -119 -55l-30 42q28 28 68 48t81 20q21 0 42.5 -4.5t32.5 -8t31 -12.5t24 -11q6 -2 23 -10t27.5 -12t29 -8t36.5 -4q31 0 64 16.5
t56 39.5zM543 214l30 -42q-27 -28 -67 -48.5t-82 -20.5q-21 0 -42.5 4.5t-32.5 8t-31 12.5t-24 11q-6 2 -23 10t-27.5 12t-29 8t-36.5 4q-63 0 -120 -55l-29 42q27 28 67 48t82 20q21 0 42 -4t32.5 -8.5t30.5 -13t25 -10.5t23 -10t27.5 -12t29 -8t36.5 -4q63 0 119 56z" />
    <glyph glyph-name="notequal" unicode="&#x2260;" horiz-adv-x="596" 
d="M556 143h-309l-79 -125h-59l79 125h-148v55h183l90 142h-273v55h308l79 125h60l-80 -125h149v-55h-184l-90 -142h274v-55z" />
    <glyph glyph-name="lessequal" unicode="&#x2264;" horiz-adv-x="596" 
d="M529 97l-462 195v54l462 195v-61l-388 -160v-2l388 -160v-61zM529 0h-462v53h462v-53z" />
    <glyph glyph-name="greaterequal" unicode="&#x2265;" horiz-adv-x="596" 
d="M529 292l-462 -195v61l388 160v2l-388 160v61l462 -195v-54zM529 0h-462v53h462v-53z" />
    <glyph glyph-name="lozenge" unicode="&#x25ca;" horiz-adv-x="474" 
d="M423 325l-158 -341h-57l-158 341l158 341h57zM357 323l-111 249q-5 12 -10 28h-2q-2 -9 -10 -28l-108 -245l111 -249q6 -15 9 -28h3q2 10 10 28z" />
    <glyph glyph-name="uniEFED" unicode="&#xefed;" 
d="M151 727h-1q-18 0 -31 13t-13 31q0 19 13 32t32 13t31.5 -13t12.5 -32q0 -18 -12.5 -31t-31.5 -13z" />
    <glyph glyph-name="uniEFEE" unicode="&#xefee;" 
d="M43 811h45q8 -43 61 -43t62 43h45q0 -43 -29 -69.5t-77 -26.5q-50 0 -78.5 25.5t-28.5 70.5z" />
    <glyph glyph-name="uniEFF1" unicode="&#xeff1;" 
d="M123 5h54q-44 -66 -44 -102q0 -22 12.5 -34t28.5 -12q24 0 43 9l11 -43q-29 -22 -72 -22q-38 0 -61 22t-23 59q0 58 51 123z" />
    <glyph glyph-name="uniEFF2" unicode="&#xeff2;" 
d="M144 5h48l-29 -55q27 -4 46.5 -24t19.5 -47q0 -40 -27 -59.5t-64 -19.5q-35 0 -67 18l16 42q24 -15 50 -15q36 0 36 31q0 36 -69 43z" />
    <glyph glyph-name="uniEFF3" unicode="&#xeff3;" horiz-adv-x="400" 
d="M203 869h1q42 0 67 -25.5t25 -62.5q0 -36 -26 -61.5t-67 -25.5q-43 0 -68.5 25t-25.5 61q0 37 26 63t68 26zM202 833h-1q-21 0 -32.5 -15.5t-11.5 -37.5q0 -19 12.5 -34t32.5 -15q21 0 33.5 14.5t12.5 36.5q0 21 -12.5 36t-33.5 15z" />
    <glyph glyph-name="uniEFF5" unicode="&#xeff5;" 
d="M85 718h-41q-1 43 15 68.5t44 25.5q19 0 47 -17q30 -18 40 -18q12 0 18 8t8 29h40q2 -90 -62 -90q-24 0 -49 17q-26 16 -36 16q-19 0 -24 -39z" />
    <glyph glyph-name="uniEFF7" unicode="&#xeff7;" 
d="M117 808h66l87 -98h-67l-52 55h-2l-52 -55h-66z" />
    <glyph glyph-name="uniF629" unicode="&#xf629;" horiz-adv-x="243" 
d="M163 -5h-42v60q-41 8 -65 37q-31 34 -31 104q0 54 26 92t71 48v59h41v-56q30 -2 47 -11l-10 -47q-20 11 -48 11q-31 0 -48.5 -29t-17.5 -69q0 -43 19 -68.5t49 -25.5q28 0 51 10l7 -45q-19 -11 -49 -12v-58z" />
    <glyph glyph-name="uniF62A" unicode="&#xf62a;" horiz-adv-x="248" 
d="M140 -50h-41v60q-46 2 -73 20l13 47q33 -20 67 -20q26 0 41 14.5t15 38.5q0 39 -55 69q-39 21 -59 44t-20 58t20.5 60.5t54.5 34.5v60h42v-55q38 -1 64 -18l-13 -46q-29 17 -59 17q-25 0 -37.5 -13.5t-12.5 -32.5q0 -21 12 -34t46 -31q75 -40 75 -108q0 -39 -22 -66.5
t-58 -35.5v-63z" />
    <glyph glyph-name="uniF62B" unicode="&#xf62b;" horiz-adv-x="168" 
d="M18 210h132v-45h-132v45z" />
    <glyph glyph-name="uniF62C" unicode="&#xf62c;" horiz-adv-x="159" 
d="M104 429h45q-65 -99 -65 -244q0 -142 65 -243h-45q-69 96 -69 243q0 148 69 244z" />
    <glyph glyph-name="uniF62D" unicode="&#xf62d;" horiz-adv-x="159" 
d="M54 -58h-45q65 101 65 244q0 142 -65 243h45q70 -95 70 -243q0 -144 -70 -244z" />
    <glyph glyph-name="uniF62E" unicode="&#xf62e;" horiz-adv-x="243" 
d="M163 258h-42v60q-41 8 -65 37q-31 34 -31 104q0 54 26 92t71 48v59h41v-56q30 -2 47 -11l-10 -47q-20 11 -48 11q-31 0 -48.5 -29t-17.5 -69q0 -43 19 -68.5t49 -25.5q28 0 51 10l7 -45q-19 -11 -49 -12v-58z" />
    <glyph glyph-name="uniF62F" unicode="&#xf62f;" horiz-adv-x="248" 
d="M140 213h-41v60q-46 2 -73 20l13 47q33 -20 67 -20q26 0 41 14.5t15 38.5q0 39 -55 69q-39 21 -59 44t-20 58t20.5 60.5t54.5 34.5v60h42v-55q38 -1 64 -18l-13 -46q-29 17 -59 17q-25 0 -37.5 -13.5t-12.5 -32.5q0 -21 12 -34t46 -31q75 -40 75 -108q0 -39 -22 -66.5
t-58 -35.5v-63z" />
    <glyph glyph-name="uniF630" unicode="&#xf630;" horiz-adv-x="168" 
d="M18 473h132v-45h-132v45z" />
    <glyph glyph-name="uniF631" unicode="&#xf631;" horiz-adv-x="159" 
d="M104 692h45q-65 -99 -65 -244q0 -142 65 -243h-45q-69 96 -69 243q0 148 69 244z" />
    <glyph glyph-name="uniF632" unicode="&#xf632;" horiz-adv-x="159" 
d="M54 205h-45q65 101 65 244q0 142 -65 243h45q70 -95 70 -243q0 -144 -70 -244z" />
    <glyph glyph-name="uniF633" unicode="&#xf633;" horiz-adv-x="590" 
d="M348 324l29 146q-11 4 -28 4q-55 0 -95.5 -65.5t-40.5 -142.5q0 -64 40 -64q30 0 58 38t37 84zM409 61l12 -35q-63 -38 -148 -38q-104 0 -171 74t-67 215q0 168 91 287.5t225 119.5q99 0 154 -66.5t55 -173.5q0 -138 -42.5 -213.5t-111.5 -75.5q-63 0 -59 80h-2
q-43 -80 -109 -80q-36 0 -58.5 28.5t-22.5 80.5q0 59 23 115.5t73.5 97.5t116.5 41q41 0 71 -14l-40 -202q-20 -105 21 -105q38 0 66.5 64.5t28.5 163.5q0 105 -42.5 162.5t-128.5 57.5q-107 0 -185.5 -105t-78.5 -264q0 -120 54 -183.5t151 -63.5q60 0 124 32z" />
    <glyph glyph-name="uniF634" unicode="&#xf634;" 
d="M102 -214l-16 37q26 7 45 23t19 39q0 35 -34 61l62 12q35 -25 35 -70q0 -44 -31.5 -69t-79.5 -33z" />
    <glyph glyph-name="uniF638" unicode="&#xf638;" horiz-adv-x="385" 
d="M116 173l136 370q-21 49 -59 49q-46 0 -69 -72t-23 -195q0 -87 15 -152zM269 479l-136 -374q22 -47 59 -47q46 0 69 72t23 195q0 88 -15 154zM348 656l-35 -78q45 -87 45 -252q0 -169 -46.5 -251.5t-121.5 -82.5q-54 0 -91 42l-23 -53l-38 20l34 74q-45 79 -45 249
q0 165 45 249.5t126 84.5q52 0 88 -40l25 57z" />
    <glyph glyph-name="uniF639" unicode="&#xf639;" horiz-adv-x="385" 
d="M190 -8h-1q-76 0 -119 87t-43 245q0 162 45 248t126 86q78 0 119 -87.5t41 -244.5q0 -169 -46.5 -251.5t-121.5 -82.5zM193 58h1q87 0 87 267q0 121 -21.5 194t-65.5 73q-45 0 -67.5 -71.5t-22.5 -195.5q-1 -123 21 -195t68 -72z" />
    <glyph glyph-name="uniF63A" unicode="&#xf63a;" horiz-adv-x="336" 
d="M312 0h-312v50l54 74q43 60 61.5 87t50 80t44.5 97.5t13 87.5q0 55 -23.5 85.5t-68.5 30.5q-42 0 -94 -36l-19 58q53 44 127 44q77 0 116 -50t39 -128q0 -82 -42.5 -165t-118.5 -185l-43 -60v-2h216v-68z" />
    <glyph glyph-name="uniF63B" unicode="&#xf63b;" horiz-adv-x="334" 
d="M3 22l17 61q45 -27 94 -27q51 0 81.5 35t30.5 94q0 63 -36 99t-95 36h-18v58h15q41 0 79 30.5t38 85.5q0 48 -23.5 74t-62.5 26q-38 0 -81 -31l-16 58q45 37 116 37q67 0 105.5 -42t38.5 -107q0 -50 -25 -91t-72 -62v-2q49 -13 81.5 -56t32.5 -115q0 -82 -50 -136.5
t-136 -54.5q-71 0 -114 30z" />
    <glyph glyph-name="uniF63C" unicode="&#xf63c;" horiz-adv-x="376" 
d="M296 0h-70v180h-216v52l211 418h75v-407h70v-63h-70v-180zM83 243h143v183q0 42 6 128h-4q-24 -57 -55 -122l-90 -187v-2z" />
    <glyph glyph-name="uniF63D" unicode="&#xf63d;" horiz-adv-x="353" 
d="M316 650v-68h-175l-27 -173q8 2 24 2q29 0 64.5 -13t59.5 -36q55 -53 55 -148q0 -97 -55.5 -159.5t-141.5 -62.5q-68 0 -111 28l17 61q45 -25 91 -25q53 0 88 39t35 111q0 74 -40 110t-107 36q-33 0 -51 -3l41 301h233z" />
    <glyph glyph-name="uniF63E" unicode="&#xf63e;" horiz-adv-x="385" 
d="M319 658v-65q-19 0 -46 -6q-135 -34 -167 -235h3q42 62 110 62q62 0 101 -54t39 -146q0 -96 -42.5 -159t-117.5 -63q-83 0 -127 74t-44 191q0 178 84 293q28 40 70.5 66.5t87.5 35.5q16 3 49 6zM199 52h1q35 0 58.5 38.5t23.5 117.5q0 72 -23.5 109.5t-63.5 37.5
q-58 0 -85 -70q-5 -15 -5 -39q1 -96 26.5 -145t67.5 -49z" />
    <glyph glyph-name="uniF63F" unicode="&#xf63f;" horiz-adv-x="313" 
d="M0 650h313v-46l-210 -604h-75l206 580v2h-234v68z" />
    <glyph glyph-name="uniF640" unicode="&#xf640;" horiz-adv-x="385" 
d="M199 658h1q66 0 103 -46t37 -107q0 -93 -87 -154v-2q104 -71 104 -178q0 -77 -46.5 -128t-120.5 -51q-76 0 -119 50t-43 116q0 112 107 187l-1 2q-40 27 -62.5 67t-22.5 82q0 73 44 117.5t106 44.5zM192 49h1q39 0 63.5 30t24.5 88q0 89 -93 150q-39 -24 -61.5 -63
t-22.5 -83q0 -55 23.5 -88.5t64.5 -33.5zM196 601h-1q-32 0 -52 -28t-20 -72q0 -45 21.5 -73t58.5 -52q64 46 64 120q0 48 -18.5 76.5t-52.5 28.5z" />
    <glyph glyph-name="uniF641" unicode="&#xf641;" horiz-adv-x="385" 
d="M67 -8v66q23 0 48 6q52 13 89 51q61 66 76 184h-2q-43 -54 -106 -54q-62 0 -102.5 53t-40.5 140q0 91 46 155.5t119 64.5q80 0 121.5 -73.5t41.5 -187.5q0 -186 -86 -301q-57 -79 -151 -98q-24 -6 -53 -6zM190 598h-1q-34 0 -59 -38.5t-24 -115.5q0 -69 24 -105t64 -36
q24 0 46 15.5t34 42.5q6 12 6 41q0 98 -24.5 147t-65.5 49z" />
    <glyph glyph-name="uniF642" unicode="&#xf642;" horiz-adv-x="671" 
d="M153 607h1q55 0 88 -53.5t33 -142.5q0 -97 -35.5 -147.5t-86.5 -50.5q-55 0 -89 53t-34 143q0 91 35 144.5t88 53.5zM152 559h-1q-33 0 -47.5 -44.5t-14.5 -104.5q0 -149 64 -149q63 0 63 148q0 150 -64 150zM199 -14h-49l320 626h49zM519 387h1q55 0 88 -53.5t33 -142.5
q0 -97 -35.5 -147.5t-86.5 -50.5q-55 0 -89 53t-34 143q0 91 35 144.5t88 53.5zM518 339h-1q-33 0 -47.5 -44.5t-14.5 -104.5q0 -38 5.5 -69.5t20.5 -55.5t38 -24q63 0 63 148q0 150 -64 150z" />
    <glyph glyph-name="uniF643" unicode="&#xf643;" horiz-adv-x="387" 
d="M193 -8q-68 0 -115 63t-47 190q0 126 47.5 189t114.5 63q68 0 115.5 -63t47.5 -189q0 -127 -47.5 -190t-115.5 -63zM193 54h1q46 0 67 54t21 137q0 52 -8 93t-28.5 69t-52.5 28q-46 0 -67 -54t-21 -136t21.5 -136.5t66.5 -54.5z" />
    <glyph glyph-name="uniF644" unicode="&#xf644;" horiz-adv-x="387" 
d="M272 0h-75v418h-2l-144 -60l-12 59l174 71h59v-488z" />
    <glyph glyph-name="uniF645" unicode="&#xf645;" horiz-adv-x="387" 
d="M333 0h-289v45l43 46q46 48 73.5 81t53 81t25.5 90q0 44 -22.5 67t-60.5 23q-43 0 -85 -30l-22 51q62 44 130 44q58 0 96 -39t38 -105q0 -62 -31.5 -116t-97.5 -126l-42 -47v-3q54 3 73 3h118v-65z" />
    <glyph glyph-name="uniF646" unicode="&#xf646;" horiz-adv-x="387" 
d="M44 -96l9 59q26 -6 58 -6q61 0 100.5 34.5t39.5 86.5q0 48 -32 77t-83 29q-29 0 -39 -2l-2 62l16 1q50 6 85 35.5t35 74.5q0 37 -21 57.5t-57 20.5q-43 0 -79 -19l-14 56q41 27 108 27q63 0 100 -36.5t37 -91.5q0 -51 -29.5 -88t-72.5 -51v-3q54 -9 89.5 -48.5
t35.5 -97.5q0 -84 -62 -135.5t-148 -51.5q-46 0 -74 10z" />
    <glyph glyph-name="uniF647" unicode="&#xf647;" horiz-adv-x="387" 
d="M366 56h-70v-171h-69v171h-208v52l202 384h75v-374h70v-62zM227 118v173q0 63 5 117h-4q-24 -67 -51 -119l-88 -169l1 -2h137z" />
    <glyph glyph-name="uniF648" unicode="&#xf648;" horiz-adv-x="387" 
d="M52 -97l7 60q24 -6 54 -6q53 0 94 35t41 93q0 54 -34 85q-22 20 -64.5 31t-84.5 9l45 278h210l-9 -67h-148l-27 -156q97 -7 147 -58q43 -45 43 -113q0 -90 -61.5 -145t-152.5 -55q-38 0 -60 9z" />
    <glyph glyph-name="uniF649" unicode="&#xf649;" horiz-adv-x="387" 
d="M323 605l9 -60q-177 -34 -215 -220h3q16 28 43 44t57 16q54 0 95 -50t41 -136q0 -96 -46 -151.5t-115 -55.5q-73 0 -117.5 62.5t-44.5 172.5q0 152 77 254.5t213 123.5zM197 50h1q33 0 57 35.5t24 105.5q0 66 -22 101t-57 35q-32 0 -57 -27q-33 -36 -33 -98
q0 -76 25.5 -114t61.5 -38z" />
    <glyph glyph-name="uniF64A" unicode="&#xf64a;" horiz-adv-x="387" 
d="M340 488v-43q-25 -98 -90 -265.5t-124 -283.5l-71 11q54 100 119.5 263t87.5 248v3h-204v67h282z" />
    <glyph glyph-name="uniF64B" unicode="&#xf64b;" horiz-adv-x="387" 
d="M254 320v-3q43 -23 72 -63t29 -93q0 -77 -47 -123t-117 -46q-74 0 -117.5 48t-43.5 111q0 94 104 163v2q-85 54 -85 135q0 71 44 113.5t108 42.5q57 0 97.5 -39.5t40.5 -107.5q0 -81 -85 -140zM199 553h-1q-33 0 -55 -26.5t-22 -69.5q0 -37 21 -63.5t64 -49.5
q62 44 62 115q0 47 -21.5 70.5t-47.5 23.5zM193 49h1q36 0 61 27t25 76t-25.5 80t-70.5 56q-79 -47 -79 -129q0 -48 24 -79t64 -31z" />
    <glyph glyph-name="uniF64C" unicode="&#xf64c;" horiz-adv-x="387" 
d="M53 -111l-9 59q95 12 150.5 66t71.5 137l-2 1q-27 -49 -93 -49q-55 0 -95.5 50.5t-40.5 139.5q0 93 45.5 148.5t112.5 55.5q71 0 115.5 -63t44.5 -163q0 -164 -78.5 -266.5t-221.5 -115.5zM195 158h1q27 0 48 23q32 34 32 101q0 70 -24 113.5t-63 43.5q-32 0 -55 -33.5
t-23 -104.5q0 -74 24 -108.5t60 -34.5z" />
    <glyph glyph-name="uniF64E" unicode="&#xf64e;" horiz-adv-x="387" 
d="M343 73l13 -60q-36 -21 -88 -21q-78 0 -128 51q-50 48 -63 138h-43v45h38v21q0 28 2 37h-40v45h45q12 83 64 138q54 54 133 54q43 0 77 -17l-14 -61q-32 13 -63 13q-45 0 -77 -31q-35 -36 -43 -96h162v-45h-167q-2 -14 -2 -32v-26h169v-45h-162q7 -58 41 -92
q31 -32 81 -32q37 0 65 16z" />
    <glyph glyph-name="uniF64F" unicode="&#xf64f;" horiz-adv-x="387" 
d="M74 290v60h81l8 59q22 197 157 197q32 0 55 -12l-13 -57q-18 7 -43 7q-65 0 -82 -127l-8 -67h91v-60h-96l-27 -211q-12 -98 -44 -147.5t-103 -48.5q-39 0 -63 17l15 56q22 -11 45 -11q33 0 52 34t29 117l22 194h-76z" />
    <glyph glyph-name="uniF650" unicode="&#xf650;" horiz-adv-x="387" 
d="M143 218h78l19 152h-78zM114 -12h-51l22 178h-64v52h71l20 152h-69v51h76l22 173h51l-23 -173h78l23 173h50l-22 -173h63v-51h-70l-19 -152h69v-51h-76l-23 -179h-52l23 179h-76z" />
    <glyph glyph-name="uniF651" unicode="&#xf651;" horiz-adv-x="387" 
d="M354 0h-322v48q42 18 66 49.5t24 67.5q0 25 -6 53h-77v51h66q-11 62 -11 81q0 82 44.5 128.5t110.5 46.5q45 0 79 -20l-18 -61q-24 16 -61 16t-58.5 -28t-21.5 -80q0 -30 11 -83h112v-51h-103q5 -28 5 -43q0 -70 -55 -108v-2h215v-65z" />
    <glyph glyph-name="uniF652" unicode="&#xf652;" horiz-adv-x="387" 
d="M225 0h-72v118h-121v46h121v53h-121v46h102l-119 250h80l64 -153q22 -53 33 -86h2q14 40 35 88l66 151h76l-127 -250h104v-46h-123v-53h123v-46h-123v-118z" />
    <glyph glyph-name="uniF653" unicode="&#xf653;" horiz-adv-x="387" 
d="M214 -67h-53v69q-63 0 -113 33l20 56q44 -31 101 -31q41 0 66 21t25 55q0 52 -88 92q-58 27 -88.5 57t-30.5 75t32 79t81 44v78h53v-73q57 0 96 -27l-21 -54q-34 23 -82 23q-38 0 -62 -18.5t-24 -46.5q0 -26 21.5 -45t72.5 -40q114 -51 114 -138q0 -55 -34 -90.5
t-86 -45.5v-73z" />
    <glyph glyph-name="uniF654" unicode="&#xf654;" horiz-adv-x="387" 
d="M296 129l11 -53q-29 -16 -69 -17v-68h-52v71q-66 11 -99 62.5t-33 129.5q0 75 36.5 127.5t95.5 65.5v67h52v-63q38 -2 65 -14l-15 -55q-26 12 -61 12q-48 0 -74.5 -40t-26.5 -102q0 -65 27 -101t74 -36q39 0 69 14z" />
    <glyph glyph-name="uniF655" unicode="&#xf655;" horiz-adv-x="265" 
d="M131 -5h-1q-54 0 -83.5 53.5t-29.5 145.5q0 94 31 147.5t87 53.5q57 0 84.5 -53.5t27.5 -144.5q0 -100 -31.5 -151t-84.5 -51zM132 45h1q53 0 53 151q0 149 -53 149q-26 0 -40.5 -39.5t-14.5 -109.5q0 -151 54 -151z" />
    <glyph glyph-name="uniF656" unicode="&#xf656;" horiz-adv-x="212" 
d="M157 0h-60v333h-2l-73 -39l-11 48l94 48h52v-390z" />
    <glyph glyph-name="uniF657" unicode="&#xf657;" horiz-adv-x="245" 
d="M2 0v29l41 50q37 46 53.5 68t37 61.5t20.5 69.5q0 32 -16 48.5t-44 16.5q-34 0 -66 -27l-17 44q37 35 99 35q53 0 80.5 -30.5t27.5 -76.5q0 -76 -103 -197l-30 -37v-2h139v-52h-222z" />
    <glyph glyph-name="uniF658" unicode="&#xf658;" horiz-adv-x="235" 
d="M30 326l-13 43q36 26 87 26q48 0 74.5 -26t26.5 -65q0 -64 -62 -89v-2q30 -7 52.5 -33t22.5 -65q0 -52 -36.5 -86t-98.5 -34q-47 0 -82 21l13 46q35 -19 70 -19q31 0 51 18.5t20 51.5q0 76 -89 76h-7v42h6q27 0 53.5 17t26.5 47q0 25 -14 38.5t-38 13.5q-34 0 -63 -21z
" />
    <glyph glyph-name="uniF659" unicode="&#xf659;" horiz-adv-x="270" 
d="M212 0h-56v107h-147v35l144 251h59v-240h46v-46h-46v-107zM156 153v100q0 39 4 73h-2q-28 -56 -35 -69l-55 -102v-2h88z" />
    <glyph glyph-name="uniF65A" unicode="&#xf65a;" horiz-adv-x="246" 
d="M219 390v-53h-117l-13 -89q4 1 17 1q48 0 79 -27q39 -32 39 -92q0 -59 -37 -97t-96 -38q-49 0 -78 18l12 48q28 -16 63 -16q32 0 53.5 21t21.5 58q0 40 -25 60.5t-69 20.5q-9 0 -36 -3l24 188h162z" />
    <glyph glyph-name="uniF65B" unicode="&#xf65b;" horiz-adv-x="266" 
d="M217 395v-50q-20 0 -32 -3q-87 -17 -106 -125h2q27 36 71 36q43 0 69.5 -33t26.5 -89q0 -58 -29.5 -97t-82.5 -39q-55 0 -86.5 45t-31.5 117q0 109 58 176q40 47 106 59q22 3 35 3zM136 41h1q22 0 36 23t14 65q0 37 -14.5 58.5t-39.5 21.5q-34 0 -51 -38q-4 -10 -4 -27
q0 -48 15.5 -75.5t42.5 -27.5z" />
    <glyph glyph-name="uniF65C" unicode="&#xf65c;" horiz-adv-x="228" 
d="M10 390h214v-39l-137 -351h-60l135 336v1h-152v53z" />
    <glyph glyph-name="uniF65D" unicode="&#xf65d;" horiz-adv-x="266" 
d="M137 395h1q45 0 72 -27.5t27 -66.5q0 -57 -55 -90v-2q66 -36 66 -102q0 -50 -32.5 -81t-83.5 -31q-53 0 -83.5 30t-30.5 73q0 68 65 107v1q-52 33 -52 88q0 45 30.5 73t75.5 28zM134 38h1q24 0 38.5 17.5t14.5 47.5q0 54 -59 81q-51 -25 -51 -78q0 -30 15 -49t41 -19z
M135 353h-1q-21 0 -33.5 -16t-12.5 -40q0 -45 52 -68q40 23 40 66q0 26 -11.5 42t-33.5 16z" />
    <glyph glyph-name="uniF65E" unicode="&#xf65e;" horiz-adv-x="262" 
d="M45 -5v50q15 0 34 3q35 6 59 30q34 32 44 96h-1q-26 -31 -68 -31t-69 32t-27 85q0 55 31.5 95t82.5 40q54 0 83.5 -44.5t29.5 -115.5q0 -114 -60 -183q-40 -46 -102 -55q-14 -2 -37 -2zM128 349h-1q-21 0 -35.5 -22.5t-14.5 -62.5q0 -36 14 -57t38 -21q35 0 50 31
q4 8 4 28q0 50 -14.5 77t-40.5 27z" />
    <glyph glyph-name="uniF65F" unicode="&#xf65f;" horiz-adv-x="128" 
d="M46 -71l-41 -4q24 66 37 149l65 6q-31 -99 -61 -151z" />
    <glyph glyph-name="uniF660" unicode="&#xf660;" horiz-adv-x="128" 
d="M64 -5h-1q-16 0 -26.5 11.5t-10.5 30.5q0 18 11.5 30.5t26.5 12.5q17 0 27.5 -12t10.5 -31t-10.5 -30.5t-27.5 -11.5z" />
    <glyph glyph-name="uniF661" unicode="&#xf661;" horiz-adv-x="265" 
d="M131 258h-1q-54 0 -83.5 53.5t-29.5 145.5q0 94 31 147.5t87 53.5q57 0 84.5 -53.5t27.5 -144.5q0 -100 -31.5 -151t-84.5 -51zM132 308h1q53 0 53 151q0 149 -53 149q-26 0 -40.5 -39.5t-14.5 -109.5q0 -151 54 -151z" />
    <glyph glyph-name="uniF662" unicode="&#xf662;" horiz-adv-x="212" 
d="M157 263h-60v333h-2l-73 -39l-11 48l94 48h52v-390z" />
    <glyph glyph-name="uniF663" unicode="&#xf663;" horiz-adv-x="245" 
d="M2 263v29l41 50q37 46 53.5 68t37 61.5t20.5 69.5q0 33 -16 49t-44 16q-34 0 -66 -27l-17 44q37 35 99 35q53 0 80.5 -30.5t27.5 -76.5q0 -76 -103 -197l-30 -37v-2h139v-52h-222z" />
    <glyph glyph-name="uniF664" unicode="&#xf664;" horiz-adv-x="235" 
d="M30 589l-13 43q36 26 87 26q48 0 74.5 -26t26.5 -65q0 -64 -62 -89v-2q30 -7 52.5 -33t22.5 -65q0 -52 -36.5 -86t-98.5 -34q-47 0 -82 21l13 46q35 -19 70 -19q31 0 51 18.5t20 51.5q0 76 -89 76h-7v42h6q27 0 53.5 17t26.5 47q0 25 -14 38.5t-38 13.5q-34 0 -63 -21z
" />
    <glyph glyph-name="uniF665" unicode="&#xf665;" horiz-adv-x="270" 
d="M212 263h-56v107h-147v35l144 251h59v-240h46v-46h-46v-107zM156 416v100q0 39 4 73h-2q-28 -56 -35 -69l-55 -102v-2h88z" />
    <glyph glyph-name="uniF666" unicode="&#xf666;" horiz-adv-x="246" 
d="M219 653v-53h-117l-13 -89q4 1 17 1q48 0 79 -27q39 -32 39 -92q0 -59 -37 -97t-96 -38q-49 0 -78 18l12 48q28 -16 63 -16q32 0 53.5 21t21.5 58q0 40 -25 60.5t-69 20.5q-9 0 -36 -3l24 188h162z" />
    <glyph glyph-name="uniF667" unicode="&#xf667;" horiz-adv-x="266" 
d="M217 658v-50q-20 0 -32 -3q-87 -17 -106 -125h2q27 36 71 36q43 0 69.5 -33t26.5 -89q0 -58 -29.5 -97t-82.5 -39q-55 0 -86.5 45t-31.5 117q0 109 58 176q40 47 106 59q22 3 35 3zM136 304h1q22 0 36 23t14 65q0 37 -14.5 58.5t-39.5 21.5q-34 0 -51 -38q-4 -10 -4 -27
q0 -48 15.5 -75.5t42.5 -27.5z" />
    <glyph glyph-name="uniF668" unicode="&#xf668;" horiz-adv-x="228" 
d="M10 653h214v-39l-137 -351h-60l135 336v1h-152v53z" />
    <glyph glyph-name="uniF669" unicode="&#xf669;" horiz-adv-x="266" 
d="M137 658h1q45 0 72 -27.5t27 -66.5q0 -57 -55 -90v-2q66 -36 66 -102q0 -50 -32.5 -81t-83.5 -31q-53 0 -83.5 30t-30.5 73q0 68 65 107v1q-52 33 -52 88q0 45 30.5 73t75.5 28zM134 301h1q24 0 38.5 17.5t14.5 47.5q0 54 -59 81q-51 -25 -51 -78q0 -30 15 -49t41 -19z
M135 616h-1q-21 0 -33.5 -16t-12.5 -40q0 -45 52 -68q40 23 40 66q0 26 -11.5 42t-33.5 16z" />
    <glyph glyph-name="uniF66A" unicode="&#xf66a;" horiz-adv-x="262" 
d="M45 258v50q15 0 34 3q35 6 59 30q34 32 44 96h-1q-26 -31 -68 -31t-69 32t-27 85q0 55 31.5 95t82.5 40q54 0 83.5 -44.5t29.5 -115.5q0 -114 -60 -183q-40 -46 -102 -55q-14 -2 -37 -2zM128 612h-1q-21 0 -35.5 -22.5t-14.5 -62.5q0 -36 14 -57t38 -21q35 0 50 31
q4 8 4 28q0 50 -14.5 77t-40.5 27z" />
    <glyph glyph-name="uniF66B" unicode="&#xf66b;" horiz-adv-x="128" 
d="M46 192l-41 -4q24 66 37 149l65 6q-31 -99 -61 -151z" />
    <glyph glyph-name="uniF66C" unicode="&#xf66c;" horiz-adv-x="128" 
d="M64 258h-1q-16 0 -26.5 11.5t-10.5 30.5q0 18 11.5 30.5t26.5 12.5q17 0 27.5 -12t10.5 -31t-10.5 -30.5t-27.5 -11.5z" />
    <glyph glyph-name="uniF6AE" unicode="&#xf6ae;" horiz-adv-x="253" 
d="M168 733h60q-104 -164 -104 -407q0 -239 104 -405h-60q-109 159 -109 406q3 253 109 406z" />
    <glyph glyph-name="uniF6AF" unicode="&#xf6af;" horiz-adv-x="253" 
d="M85 -79h-60q104 164 104 407q0 241 -104 405h60q109 -155 109 -405q-3 -249 -109 -407z" />
    <glyph glyph-name="uniF6B0" unicode="&#xf6b0;" horiz-adv-x="253" 
d="M222 -71h-148v798h148v-53h-86v-692h86v-53z" />
    <glyph glyph-name="uniF6B1" unicode="&#xf6b1;" horiz-adv-x="253" 
d="M31 727h149v-798h-149v53h86v692h-86v53z" />
    <glyph glyph-name="uniF6B2" unicode="&#xf6b2;" horiz-adv-x="253" 
d="M28 304l1 50q68 0 68 71q0 29 -6 85q-6 58 -6 89q0 64 34.5 96t90.5 32h12v-52h-14q-59 -7 -59 -75q0 -28 6 -78q5 -63 5 -74q1 -55 -16.5 -81t-52.5 -37v-2q35 -10 52.5 -36t16.5 -83q0 -26 -6 -74q-5 -65 -5 -78q0 -35 13.5 -53.5t46.5 -22.5h13v-52h-13
q-54 0 -89 30.5t-35 97.5q0 30 6 90q6 56 6 86q0 71 -69 71z" />
    <glyph glyph-name="uniF6B3" unicode="&#xf6b3;" horiz-adv-x="253" 
d="M225 354l-1 -50q-68 0 -68 -71q0 -30 6 -86q6 -60 6 -90q0 -67 -35 -97.5t-89 -30.5h-13v52h13q33 4 46.5 22.5t13.5 53.5q0 13 -5 78q-6 48 -6 74q-1 57 16.5 83t52.5 36v2q-35 11 -52.5 37t-16.5 81q0 24 6 74q5 62 5 78q0 68 -59 75h-14v52h12q56 0 90.5 -32t34.5 -96
q0 -31 -6 -89q-6 -56 -6 -85q0 -71 69 -71z" />
    <glyph glyph-name="uniF6B4" unicode="&#xf6b4;" horiz-adv-x="204" 
d="M144 0h-85l10 486h65zM102 685h1q22 0 35 -15t13 -40q0 -24 -13 -39t-36 -15q-21 0 -35 15t-14 39t14 39.5t35 15.5z" />
    <glyph glyph-name="uniF6B5" unicode="&#xf6b5;" horiz-adv-x="309" 
d="M175 685h1q21 0 35 -15.5t14 -40.5q0 -24 -13.5 -40t-36.5 -16q-22 0 -36 16t-14 40q0 25 13.5 40.5t36.5 15.5zM136 491h68l2 -15q14 -96 -42 -190q-2 -3 -10.5 -18t-10.5 -18t-8.5 -15.5t-8.5 -16.5t-6.5 -15t-6 -16.5t-4 -15t-3 -17.5t-0.5 -17q0 -41 21 -61t55 -20
q36 0 67 18l16 -59q-38 -26 -99 -26q-70 0 -104.5 39.5t-34.5 98.5q0 18 3.5 36t8 31.5t14 32t15 28t18 29.5t16.5 27q24 42 32 77.5t3 85.5z" />
    <glyph glyph-name="uniF6B6" unicode="&#xf6b6;" horiz-adv-x="354" 
d="M190 502l-103 -175l103 -174h-63l-102 174l103 175h62zM333 502l-104 -175l104 -174h-63l-102 174l103 175h62z" />
    <glyph glyph-name="uniF6B7" unicode="&#xf6b7;" horiz-adv-x="354" 
d="M125 327l-104 175h62l103 -175l-101 -174h-64zM267 327l-103 175h62l103 -175l-102 -174h-63z" />
    <glyph glyph-name="uniF6B8" unicode="&#xf6b8;" horiz-adv-x="210" 
d="M190 502l-103 -175l103 -174h-63l-102 174l103 175h62z" />
    <glyph glyph-name="uniF6B9" unicode="&#xf6b9;" horiz-adv-x="210" 
d="M124 327l-103 175h62l103 -175l-102 -174h-63z" />
    <glyph glyph-name="uniF6BA" unicode="&#xf6ba;" horiz-adv-x="279" 
d="M30 366h219v-59h-219v59z" />
    <glyph glyph-name="uniF6BB" unicode="&#xf6bb;" horiz-adv-x="500" 
d="M30 363h440v-55h-440v55z" />
    <glyph glyph-name="uniF6BC" unicode="&#xf6bc;" horiz-adv-x="1000" 
d="M30 363h940v-55h-940v55z" />
    <glyph glyph-name="uniF6BD" unicode="&#xf6bd;" horiz-adv-x="194" 
d="M97 277h-1q-21 0 -35.5 15.5t-14.5 41.5q0 24 15 40.5t36 16.5q23 0 37 -15.5t14 -41.5t-14 -41.5t-37 -15.5z" />
    <glyph glyph-name="commaaccent" unicode="&#xf6c3;" 
d="M102 -214l-16 37q26 7 45 23t19 39q0 35 -34 61l62 12q35 -25 35 -70q0 -44 -31.5 -69t-79.5 -33z" />
    <glyph glyph-name="Acute" unicode="&#xf6c9;" 
d="M202 818h91l-124 -108h-61z" />
    <glyph glyph-name="Caron" unicode="&#xf6ca;" 
d="M182 710h-66l-87 98h67l52 -58h2l52 58h66z" />
    <glyph glyph-name="Dieresis" unicode="&#xf6cb;" 
d="M69 725h-1q-18 0 -30 13t-12 34q0 19 12.5 32.5t30.5 13.5q19 0 31 -13t12 -33q0 -21 -12 -34t-31 -13zM230 725h-1q-18 0 -30 13t-12 34q0 19 12.5 32.5t30.5 13.5q19 0 31 -13t12 -33q0 -21 -12 -34t-31 -13z" />
    <glyph glyph-name="DieresisAcute" unicode="&#xf6cc;" horiz-adv-x="301" 
d="M33 725h-1q-16 0 -27.5 12.5t-11.5 31.5t12 32t29 13q19 0 30 -12.5t11 -32.5t-11.5 -32t-30.5 -12zM272 725h-1q-16 0 -27.5 12.5t-11.5 31.5t12 32t29 13q19 0 30 -12.5t11 -32.5t-11.5 -32t-30.5 -12zM151 823h83l-106 -113h-57z" />
    <glyph glyph-name="DieresisGrave" unicode="&#xf6cd;" horiz-adv-x="301" 
d="M33 725h-1q-16 0 -27.5 12.5t-11.5 31.5t12 32t29 13q19 0 30 -12.5t11 -32.5t-11.5 -32t-30.5 -12zM272 725h-1q-16 0 -27.5 12.5t-11.5 31.5t12 32t29 13q19 0 30 -12.5t11 -32.5t-11.5 -32t-30.5 -12zM70 823h83l80 -113h-57z" />
    <glyph glyph-name="Grave" unicode="&#xf6ce;" 
d="M15 818h91l94 -108h-61z" />
    <glyph glyph-name="Hungarumlaut" unicode="&#xf6cf;" 
d="M100 818h81l-99 -99h-54zM227 818h81l-99 -99h-54z" />
    <glyph glyph-name="Macron" unicode="&#xf6d0;" 
d="M44 788h213v-53h-213v53z" />
    <glyph glyph-name="cyrBreve" unicode="&#xf6d1;" 
d="M37 813h56q10 -56 57 -56q49 0 56 56h57q-13 -97 -114 -97q-103 0 -112 97z" />
    <glyph glyph-name="cyrFlex" unicode="&#xf6d2;" 
d="M263 715h-56q-10 56 -57 56q-49 0 -56 -56h-57q13 97 114 97q103 0 112 -97z" />
    <glyph glyph-name="dblGrave" unicode="&#xf6d3;" 
d="M-32 822h86l98 -113h-56zM122 822h86l98 -113h-56z" />
    <glyph glyph-name="cyrbreve" unicode="&#xf6d4;" 
d="M37 667h54q3 -33 18 -50.5t41 -16.5q52 0 60 67h54q-13 -111 -115 -111q-101 0 -112 111z" />
    <glyph glyph-name="cyrflex" unicode="&#xf6d5;" 
d="M91 562h-54q13 112 115 112q101 0 112 -112h-54q-6 68 -59 68q-54 0 -60 -68z" />
    <glyph glyph-name="dblgrave" unicode="&#xf6d6;" 
d="M-25 671h78l85 -132h-48zM112 671h78l85 -132h-48z" />
    <glyph glyph-name="dieresisacute" unicode="&#xf6d7;" horiz-adv-x="301" 
d="M36 565h-1q-17 0 -29.5 12.5t-12.5 31.5t13 31.5t31 12.5t30 -12.5t12 -31.5t-12 -31.5t-31 -12.5zM266 565h-1q-17 0 -29.5 12.5t-12.5 31.5t13 31.5t31 12.5t30 -12.5t12 -31.5t-12 -31.5t-31 -12.5zM160 683h77l-105 -135h-49z" />
    <glyph glyph-name="dieresisgrave" unicode="&#xf6d8;" 
d="M36 565h-1q-17 0 -29.5 12.5t-12.5 31.5t13 31.5t31 12.5t30 -12.5t12 -31.5t-12 -31.5t-31 -12.5zM266 565h-1q-17 0 -29.5 12.5t-12.5 31.5t13 31.5t31 12.5t30 -12.5t12 -31.5t-12 -31.5t-31 -12.5zM68 683h76l77 -135h-49z" />
    <glyph glyph-name="uniF6DC" unicode="&#xf6dc;" horiz-adv-x="268" 
d="M125 0v572h-2l-108 -62l-15 60l137 80h63v-650h-75z" />
    <glyph glyph-name="centinferior" unicode="&#xf6df;" horiz-adv-x="243" 
d="M163 -152h-42v60q-41 8 -65 37q-31 34 -31 104q0 54 26 92t71 48v59h41v-56q30 -2 47 -11l-10 -47q-20 11 -48 11q-31 0 -48.5 -29t-17.5 -69q0 -43 19 -68.5t49 -25.5q28 0 51 10l7 -45q-19 -11 -49 -12v-58z" />
    <glyph glyph-name="centsuperior" unicode="&#xf6e0;" horiz-adv-x="243" 
d="M163 412h-42v60q-41 8 -65 37q-31 34 -31 104q0 54 26 92t71 48v59h41v-56q30 -2 47 -11l-10 -47q-20 11 -48 11q-31 0 -48.5 -29t-17.5 -69q0 -43 19 -68.5t49 -25.5q28 0 51 10l7 -45q-19 -11 -49 -12v-58z" />
    <glyph glyph-name="commainferior" unicode="&#xf6e1;" horiz-adv-x="128" 
d="M46 -218l-41 -4q24 66 37 149l65 6q-31 -99 -61 -151z" />
    <glyph glyph-name="commasuperior" unicode="&#xf6e2;" horiz-adv-x="128" 
d="M46 346l-41 -4q24 66 37 149l65 6q-31 -99 -61 -151z" />
    <glyph glyph-name="dollarinferior" unicode="&#xf6e3;" horiz-adv-x="248" 
d="M140 -197h-41v60q-46 2 -73 20l13 47q33 -20 67 -20q26 0 41 14.5t15 38.5q0 39 -55 69q-39 21 -59 44t-20 58t20.5 60.5t54.5 34.5v60h42v-55q38 -1 64 -18l-13 -46q-29 17 -59 17q-25 0 -37.5 -13.5t-12.5 -32.5q0 -21 12 -34t46 -31q75 -40 75 -108q0 -39 -22 -66.5
t-58 -35.5v-63z" />
    <glyph glyph-name="dollarsuperior" unicode="&#xf6e4;" horiz-adv-x="248" 
d="M140 367h-41v60q-46 2 -73 20l13 47q33 -20 67 -20q26 0 41 14.5t15 38.5q0 39 -55 69q-39 21 -59 44t-20 58t20.5 60.5t54.5 34.5v60h42v-55q38 -1 64 -18l-13 -46q-29 17 -59 17q-25 0 -37.5 -13.5t-12.5 -32.5q0 -21 12 -34t46 -31q75 -40 75 -108q0 -39 -22 -66.5
t-58 -35.5v-63z" />
    <glyph glyph-name="hypheninferior" unicode="&#xf6e5;" horiz-adv-x="168" 
d="M18 63h132v-45h-132v45z" />
    <glyph glyph-name="hyphensuperior" unicode="&#xf6e6;" horiz-adv-x="168" 
d="M18 627h132v-45h-132v45z" />
    <glyph glyph-name="periodinferior" unicode="&#xf6e7;" horiz-adv-x="128" 
d="M64 -152h-1q-16 0 -26.5 11.5t-10.5 30.5q0 18 11.5 30.5t26.5 12.5q17 0 27.5 -12t10.5 -31t-10.5 -30.5t-27.5 -11.5z" />
    <glyph glyph-name="periodsuperior" unicode="&#xf6e8;" horiz-adv-x="128" 
d="M64 412h-1q-16 0 -26.5 11.5t-10.5 30.5q0 18 11.5 30.5t26.5 12.5q17 0 27.5 -12t10.5 -31t-10.5 -30.5t-27.5 -11.5z" />
    <glyph glyph-name="zerooldstyle" unicode="&#xf730;" horiz-adv-x="387" 
d="M193 -8q-68 0 -115 63t-47 190q0 126 47.5 189t114.5 63q68 0 115.5 -63t47.5 -189q0 -127 -47.5 -190t-115.5 -63zM193 54h1q46 0 67 54t21 137q0 52 -8 93t-28.5 69t-52.5 28q-46 0 -67 -54t-21 -136t21.5 -136.5t66.5 -54.5z" />
    <glyph glyph-name="oneoldstyle" unicode="&#xf731;" horiz-adv-x="265" 
d="M199 0h-75v414h-2l-94 -51l-16 58l128 67h59v-488z" />
    <glyph glyph-name="twooldstyle" unicode="&#xf732;" horiz-adv-x="335" 
d="M304 0h-289v45l43 46q46 48 73.5 81t53 81t25.5 90q0 44 -22.5 67t-60.5 23q-43 0 -85 -30l-22 51q62 44 130 44q58 0 96 -39t38 -105q0 -62 -31.5 -116t-97.5 -126l-42 -47v-3q54 3 73 3h118v-65z" />
    <glyph glyph-name="threeoldstyle" unicode="&#xf733;" horiz-adv-x="328" 
d="M15 -96l9 59q26 -6 58 -6q61 0 100.5 34.5t39.5 86.5q0 48 -32 77t-83 29q-29 0 -39 -2l-2 62l16 1q50 6 85 35.5t35 74.5q0 37 -21 57.5t-57 20.5q-43 0 -79 -19l-14 56q41 27 108 27q63 0 100 -36.5t37 -91.5q0 -51 -29.5 -88t-72.5 -51v-3q54 -9 89.5 -48.5
t35.5 -97.5q0 -84 -62 -135.5t-148 -51.5q-46 0 -74 10z" />
    <glyph glyph-name="fouroldstyle" unicode="&#xf734;" horiz-adv-x="373" 
d="M358 56h-70v-171h-69v171h-208v52l202 384h75v-374h70v-62zM219 118v173q0 63 5 117h-4q-24 -67 -51 -119l-88 -169l1 -2h137z" />
    <glyph glyph-name="fiveoldstyle" unicode="&#xf735;" horiz-adv-x="330" 
d="M26 -97l7 60q24 -6 54 -6q53 0 94 35t41 93q0 54 -34 85q-22 20 -64.5 31t-84.5 9l45 278h210l-9 -67h-148l-27 -156q97 -7 147 -58q43 -45 43 -113q0 -90 -61.5 -145t-152.5 -55q-38 0 -60 9z" />
    <glyph glyph-name="sixoldstyle" unicode="&#xf736;" horiz-adv-x="385" 
d="M321 605l9 -60q-177 -34 -215 -220h3q16 28 43 44t57 16q54 0 95 -50t41 -136q0 -96 -46 -151.5t-115 -55.5q-73 0 -117.5 62.5t-44.5 172.5q0 152 77 254.5t213 123.5zM195 50h1q33 0 57 35.5t24 105.5q0 66 -22 101t-57 35q-32 0 -57 -27q-33 -36 -33 -98
q0 -76 25.5 -114t61.5 -38z" />
    <glyph glyph-name="sevenoldstyle" unicode="&#xf737;" horiz-adv-x="329" 
d="M308 488v-43q-25 -98 -90 -265.5t-124 -283.5l-71 11q54 100 119.5 263t87.5 248v3h-204v67h282z" />
    <glyph glyph-name="eightoldstyle" unicode="&#xf738;" horiz-adv-x="392" 
d="M257 320v-3q43 -23 72 -63t29 -93q0 -77 -47 -123t-117 -46q-74 0 -117.5 48t-43.5 111q0 94 104 163v2q-85 54 -85 135q0 71 44 113.5t108 42.5q57 0 97.5 -39.5t40.5 -107.5q0 -81 -85 -140zM202 553h-1q-33 0 -55 -26.5t-22 -69.5q0 -37 21 -63.5t64 -49.5
q62 44 62 115q0 47 -21.5 70.5t-47.5 23.5zM196 49h1q36 0 61 27t25 76t-25.5 80t-70.5 56q-79 -47 -79 -129q0 -48 24 -79t64 -31z" />
    <glyph glyph-name="nineoldstyle" unicode="&#xf739;" horiz-adv-x="385" 
d="M49 -111l-9 59q95 12 150.5 66t71.5 137l-2 1q-27 -49 -93 -49q-55 0 -95.5 50.5t-40.5 139.5q0 93 45.5 148.5t112.5 55.5q71 0 115.5 -63t44.5 -163q0 -164 -78.5 -266.5t-221.5 -115.5zM191 158h1q27 0 48 23q32 34 32 101q0 70 -24 113.5t-63 43.5q-32 0 -55 -33.5
t-23 -104.5q0 -74 24 -108.5t60 -34.5z" />
    </font>
</defs>
</svg>
